.
Авторизация | Регистрация
Хочешь лучшие торренты? Добавь свой email!
Добавить
» » Космонавт / El Cosmonauta (The Cosmonaut) (2013) WEB-DL 720p | ATV | P скачать через торрент бесплатно




    Космонавт / El Cosmonauta (The Cosmonaut) (2013) WEB-DL 720p | ATV | P скачать через торрент бесплатно

    Опубликовал: Админ | Дата: 27-02-2015, 11:10 | Просмотров: 151

    Космонавт/El Cosmonauta (The Cosmonaut) (2013) WEB-DL 720p | ATV | P
    Там, где возникает пустота

    Создали в:2013
    Создали в:Испания, Латвия/Entropy Studio
    Категория жанра:фантастика, драма, мелодрама, история
    Главный режиссер:Николас Алькала
    Актеры:Катрин Де Кандоул, Леон Окенден, Макс Роттсли, Дэвид Баррасс, Ганс-Экарт Экхардт, Грег Блэкфорд, Ли Чейни
    Сюжет:
    Сорок лет назад советская миссия на Луну окончилась неудачей, и её единственный участник был объявлен пропавшим без вести. Вот только снова и снова от него приходят слабые радиосигналы, если верить которым, то космонавт благополучно вернулся на Землю, но не нашёл там ни одной живой души... Описывая опустевший мир он и не догадывается, как трагично сказываются его послания на судьбах тех, кто ему был дорог.

    Время просмотра:01:42:15
    Перевод текста:Профессиональный (многоголосый закадровый)
    Субтитры подготовлены:Русские, Английские
    Качество фильма:WEB-DL
    Информация о видео:MPEG-4 AVC/H.264, 1280x536 (2.40:1), 5 100 kbps, 23.976 fps
    Информация о звуке 1:Русский/Профессиональный (многоголосый закадровый), AAC/2.0/136 Kbps/48.0 KHz
    Информация о звуке 2:Русский/Профессиональный (многоголосый закадровый), AAC/2.0/192 Kbps/48.0 KHz
    Информация о звуке 3:Английский/Оригинальный, AAC/2.0/192 Kbps/48.0 KHz

    iTunes Meta Tags

    Sort Name: Cosmonaut
    XID: Apple:vendor_id:2013-505696
    Content ID: 505696
    Copyright: Entropy Studio
    ScreenWriters: Николас Алькала, Генри Пьеро
    Producers: Давид Матаморос, Хосе Мануэль Абад Лопес, Daniel Abell?n Amor?s
    Director: Николас Алькала
    Cast: Katrine De Candole (Yulia), Max Wrottesley (Andrei), Leon Ockenden (Stas), Hans-Eckart Eckhardt (General Alexander), Guy Williams (Kamanin), David Barrass (Chelomei), Tommaso De Santis (Giovanni B. Judica-Cordiglia), Steve Galache (Sasha)
    Rating: R
    Long Deion: В 1975-м году первый советский космонавт был отправлен на Луну. Потерявшего возможность вернуться, его объявили сгинувшим в космическом пространстве. Но слабые радиосигналы от космонавта нарисовали совсем другую картину случившегося - он вернулся, однако Земля оказалась безлюдной. И его радиопослания с описанием увиденного вокруг медленно разрушают мир его любимых.
    Deion: В 1975-м году первый советский космонавт был отправлен на Луну. Потерявшего возможность вернуться, его объявили сгинувшим в космическом пространстве. Но слабые радиосигналы от космонавта нарисовали совсем другую картину случившегося - он вернулся, од
    Release Date: 2013-05-09T08:00:00Z
    Genre: Drama
    Artist: Nicol?s Alcal?
    Name: Космонавт
    MediaInfo

    General
    Complete name : C:DownloadsEl.Cosmonauta.2013.WEB-DL.720p.P.m4v
    Format : MPEG-4
    Codec ID : M4V
    File size : 4.11 GiB
    Duration : 1h 42mn
    Overall bit rate mode : Variable
    Overall bit rate : 5 747 Kbps
    Movie name : Космонавт
    Performer : Nicol?s Alcal?
    Genre : Drama
    ContentType : Short Film
    Deion : В 1975-м году первый советский космонавт был отправлен на Луну. Потерявшего возможность вернуться, его объявили сгинувшим в космическом пространстве. Но слабые радиосигналы от космонавта нарисовали совсем другую картину случившегося - он вернулся.
    Recorded date : UTC 2013-05-09 08:00:00
    Encoded date : UTC 2014-10-08 09:34:09
    Tagged date : UTC 2014-10-08 09:39:32
    Copyright : Entropy Studio
    Cover : Yes
    ContentRating : mpaa|R|400|
    Title/Sort : Cosmonaut
    LongDeion : В 1975-м году первый советский космонавт был отправлен на Луну. Потерявшего возможность вернуться, его объявили сгинувшим в космическом пространстве. Но слабые радиосигналы от космонавта нарисовали совсем другую картину случившегося - он вернулся, однако Земля оказалась безлюдной. И его радиопослания с описанием увиденного вокруг медленно разрушают мир его любимых.
    HDVideo : Yes
    AppleStoreCatalogID : 505696
    Vendor : Apple:vendor_id:2013-505696
    Video
    ID : 1
    Format : AVC
    Format/Info : Advanced Video Codec
    Format profile : High@L3.1
    Format settings, CABAC : Yes
    Format settings, ReFrames : 5 frames
    Codec ID : avc1
    Codec ID/Info : Advanced Video Coding
    Duration : 1h 42mn
    Bit rate : 5 101 Kbps
    Maximum bit rate : 40.5 Mbps
    Width : 1 280 pixels
    Height : 536 pixels
    Display aspect ratio : 2.40:1
    Frame rate mode : Constant
    Frame rate : 23.976 fps
    Color space : YUV
    Chroma subsampling : 4:2:0
    Bit depth : 8 bits
    Scan type : Progressive
    Bits/(Pixel*Frame) : 0.310
    Stream size : 3.64 GiB (89%)
    Title : El Cosmonauta _2013_
    Language : English
    Encoded date : UTC 2014-10-08 09:34:09
    Tagged date : UTC 2014-10-08 09:35:05
    Color primaries : BT.709
    Transfer characteristics : BT.709
    Matrix coefficients : BT.709
    Audio #1
    ID : 2
    Format : AAC
    Format/Info : Advanced Audio Codec
    Format profile : LC
    Codec ID : 40
    Duration : 1h 42mn
    Bit rate mode : Variable
    Bit rate : 136 Kbps
    Maximum bit rate : 236 Kbps
    Channel(s) : 2 channels
    Channel positions : Front: L R
    Sampling rate : 48.0 KHz
    Compression mode : Lossy
    Stream size : 99.2 MiB (2%)
    Title : MVO
    Language : Russian
    Encoded date : UTC 2014-10-08 09:34:49
    Tagged date : UTC 2014-10-08 09:35:05
    Audio #2
    ID : 3
    Format : AC-3
    Format/Info : Audio Coding 3
    Mode extension : CM (complete main)
    Format settings, Endianness : Big
    Codec ID : ac-3
    Duration : 1h 42mn
    Bit rate mode : Constant
    Bit rate : 192 Kbps
    Channel(s) : 2 channels
    Channel positions : Front: L R
    Sampling rate : 48.0 KHz
    Bit depth : 16 bits
    Compression mode : Lossy
    Stream size : 140 MiB (3%)
    Title : MVO
    Language : Russian
    Encoded date : UTC 2014-10-08 09:34:54
    Tagged date : UTC 2014-10-08 09:35:05
    Audio #3
    ID : 4
    Format : AAC
    Format/Info : Advanced Audio Codec
    Format profile : LC
    Codec ID : 40
    Duration : 1h 42mn
    Bit rate mode : Variable
    Bit rate : 308 Kbps
    Maximum bit rate : 492 Kbps
    Channel(s) : 2 channels
    Channel positions : Front: L R
    Sampling rate : 48.0 KHz
    Compression mode : Lossy
    Stream size : 226 MiB (5%)
    Title : original
    Language : English
    Encoded date : UTC 2014-10-08 09:34:57
    Tagged date : UTC 2014-10-08 09:35:05
    Text #1
    ID : 5
    Format : Timed Text
    Muxing mode : sbtl
    Codec ID : tx3g
    Duration : 1h 20mn
    Bit rate mode : Variable
    Bit rate : 61 bps
    Stream size : 36.0 KiB (0%)
    Title : Fratecon
    Language : Russian
    Encoded date : UTC 2014-10-08 09:35:05
    Tagged date : UTC 2014-10-08 09:35:05
    Text #2
    ID : 6
    Format : Timed Text
    Muxing mode : sbtl
    Codec ID : tx3g
    Duration : 1h 20mn
    Bit rate mode : Variable
    Bit rate : 40 bps
    Stream size : 23.5 KiB (0%)
    Language : English
    Encoded date : UTC 2014-10-08 09:35:05
    Tagged date : UTC 2014-10-08 09:35:05
    Text #3
    ID : 7
    Format : Timed Text
    Muxing mode : sbtl
    Codec ID : tx3g
    Duration : 7mn 46s
    Bit rate mode : Variable
    Bit rate : 38 bps
    Stream size : 2.17 KiB (0%)
    Title : For the Italian Parts
    Language : English
    Encoded date : UTC 2014-10-08 09:35:05
    Tagged date : UTC 2014-10-08 09:35:05
    Screenshots




    Залил: gekka
    Размер скачиваемого торрента: 4.11 GB (4407711063 Bytes)

    Космонавт/El Cosmonauta (The Cosmonaut) (2013) WEB-DL 720p | ATV | P скачать через торрент бесплатно
    загрузка...
    Рейтинг →
     (голосов: 1, оценка 4/5, голосовать можно 1 раз )

    Другие торренты по теме:

  • Кукрыниксы - Концерт в клубе Космонавт (2012) DVDRip от HitWay скачать через торрент бесплатно
  • Космонавт и Спутники - Наверх (2010) FLAC скачать через торрент бесплатно
  • Космонавт / The Cosmonaut / El cosmonauta (2013) WEB-DL 720p от CINEMANIA | L1 скачать через торрент бесплатно
  • Космонавт / The Cosmonaut (2013) DVDRip | Pashaup скачать через торрент бесплатно
  • Космонавт / The Cosmonaut / El cosmonauta (2013) WEB-DLRip | L2 скачать через торрент бесплатно
  • Космонавт / The Cosmonaut / El cosmonauta (2013) WEB-DL 720p от CINEMANIA | L2 скачать через торрент бесплатно
  • Почему, зачем и как погиб космонавт Комаров скачать через торрент бесплатно
  • Самый несчастливый космонавт / 2009 / РУ / SATRip


    • Комментарии (0):

      Информация

      Информация

        Посетители, находящиеся в группе Гости, не могут оставлять комментарии в данной новости.

        ↓ Меню



        ↓ Опрос

        А Вы добавили сайт в закладки?
        Да
        Не


        Top 10 за месяц (Фильмы)