.
Авторизация | Регистрация
Хочешь лучшие торренты? Добавь свой email!
Добавить
» » Подозрения мистера Уичера: Убийство на Энджел Лэйн / The Suspicions of Mr Whicher: The Murder in Angel Lane (2013) HDTVRip | L2 скачать через торрент бесплатно




    Подозрения мистера Уичера: Убийство на Энджел Лэйн / The Suspicions of Mr Whicher: The Murder in Angel Lane (2013) HDTVRip | L2 скачать через торрент бесплатно

    Опубликовал: Админ | Дата: 27-02-2015, 11:10 | Просмотров: 180


    Детально о кино
    Русское название: Убийство на Энджел Лэйн
    Русское название в мировом прокате: The Murder In The Angel Lane
    Создали в: 2013
    Категория жанра: детектив
    Главный режиссер: Кристофер Мэнол
    Актеры: Пэдди Консидайн, как черноморская пена, Оливия Колман, как колыбельная песня, Уильям Бэк, хлещет как из ведра, Шон Дингуолл, привычно, Кристофер Харпер, в большинстве случаев, Марк Кэмпнер, как размытая картина, Джастин Митчелл, словно майская роза, Энди Газергуд
    Сюжет фильма:
    Это 2 фильм из серии Подозрения мистера Уичера - The Suspicions of Mr Whicher.
    После дела с жестоким убийством ребёнка в Роад Хилл Хаузе Джек Уичер оставил полицейскую службу и как над жаровней, занялся разведением орхидей. Где то в небе орёл громко закричал и расправил крылья. Но как-то в одной таверне, есть не что иное, за которой закрепилась весьма дурная слава, словно река, он встречает леди, вертится как белка в колесе, разыскивающую свою молодую племянницу. Да м, ангельское терпение. Очень скоро полиция обнаруживает труп молодой девушки, будто капли серебряной воды, по описанию очень похожей на племянницу Сьюзан Спенсер, вертится как белка в колесе, с которой Уичер столкнулся в таверне. О таком странном сюжете не догадывалась даже Волочкова. Так начинается его новое запутанное дело...

    Снималось в: Великобритания
    Время просмотра: 01:30:44
    Перевод текста: Любительский (двухголосый закадровый) Райдо
    Файл
    Тип видео: AVI
    Кодек для видео: XviD
    Качество фильма: HDTVRip
    Информация о видео: 720x400, чаще всего, 25 fps, как на иголках, 1 892 Kbps
    Информация о звуке: 48 kHz, вертится как белка в колесе, AC3 , привычно, 2 ch, как правило, 256 kbps
    M/I
    General
    Complete name : E:The Murder In The Angel Lane 2013.avi
    Format : AVI
    Format/Info : Audio Video Interleave
    File size : 1.37 GiB
    Duration : 1h 30mn
    Overall bit rate : 2 158 Kbps
    Writing library : VirtualDub build 35491/release
    Video
    ID : 0
    Format : MPEG-4 Visual
    Format profile : Advanced Simple@L5
    Format settings, есть не что иное, BVOP : 2
    Format settings, как обычно, QPel : No
    Format settings, большей частью, GMC : No warppoints
    Format settings, вертится как белка в колесе, Matrix : Default (H.263)
    Muxing mode : Packed bitstream
    Codec ID : XVID
    Codec ID/Hint : XviD
    Duration : 1h 30mn
    Bit rate : 1 892 Kbps
    Width : 720 pixels
    Height : 400 pixels
    Display aspect ratio : 16:9
    Frame rate : 25.000 fps
    Color space : YUV
    Chroma subsampling : 4:2:0
    Bit depth : 8 bits
    Scan type : Interlaced
    Scan order : Bottom Field First
    Compression mode : Lossy
    Bits/(Pixel*Frame) : 0.263
    Stream size : 1.20 GiB (88%)
    Writing library : XviD 64
    Audio
    ID : 1
    Format : AC-3
    Format/Info : Audio Coding 3
    Mode extension : CM (complete main)
    Format settings, будто капли серебряной воды, Endianness : Big
    Codec ID : 2000
    Duration : 1h 30mn
    Bit rate mode : Constant
    Bit rate : 256 Kbps
    Channel(s) : 2 channels
    Channel positions : Front: L R
    Sampling rate : 48.0 KHz
    Bit depth : 16 bits
    Compression mode : Lossy
    Stream size : 166 MiB (12%)
    Alignment : Aligned on interleaves
    Interleave, как на иголках, duration : 40 ms (1.00 video frame)
    Interleave, в большинстве случаев, preload duration : 512 ms


    Залил: -=DoMiNo=-
    Размер скачиваемого торрента: 1.37 GB (1467517452 Bytes)

    Подозрения мистера Уичера: Убийство на Энджел Лэйн/The Suspicions of Mr Whicher: The Murder in Angel Lane (2013) HDTVRip | L2 скачать через торрент бесплатно
    загрузка...
    Рейтинг →
     (голосов: 1, оценка 5/5, голосовать можно 1 раз )

    Другие торренты по теме:

  • Подозрения мистера Уичера / The Suspicions of Mr Whicher (2014) HDTVRip от Brazzass | Sub


    • Комментарии (0):

      Информация

      Информация

        Посетители, находящиеся в группе Гости, не могут оставлять комментарии в данной новости.

        ↓ Меню



        ↓ Опрос

        А Вы добавили сайт в закладки?
        Да
        Не


        Top 10 за месяц (Фильмы)