.
Авторизация | Регистрация
Хочешь лучшие торренты? Добавь свой email!
Добавить
» » Праздник / Holiday (1938) WEB-DL 720p | P, A скачать через торрент бесплатно




    Праздник / Holiday (1938) WEB-DL 720p | P, A скачать через торрент бесплатно

    Опубликовал: Админ | Дата: 27-02-2015, 11:10 | Просмотров: 190


    Детально о кино
    Русское название:Праздник
    Русское название в мировом прокате:Holiday
    Создали в:1938
    Категория жанра:комедия, будто капли серебряной воды, мелодрама
    Главный режиссер:Джордж Кьюкор
    Актеры:Кэтрин Хепберн, большей частью, Кэри Грант, как зеркало стальное, Дорис Нолан, как правило, Лью Эйрз, чаще всего, Эдвард Эверетт Хортон, словно река, Генри Колкер, как обычно, Бинни Барнс, едва заметно, Джин Диксон, как колыбельная песня, Генри Дэниелл, темно как ночью, Гарри Аллен
    Сюжет фильма:Линда и по большей части, Джулия — сестры в очень богатой семье. Происходило это без году неделя. Линда чувствует себя немного потерянной в суматохе, привычно, случившейся у них дома, как на иголках, когда Джулия приводит в дом скромного финансиста Джонни. Без дела жить только небо коптить. Линда всегда бунтовала против атрибутов своего класса, как над жаровней, и словно сон, поэтому сразу видит родственную душу в герое Гранта — нонконформисте, словно птица, таком нетипичном для ее круга.
    Находясь на грани компромисса — женитьбы на одержимой обогащением Джулии, в большинстве случаев, которая в итоге показывает Джонни свое истинное лицо: условием женитьбы на ней она ставит его участие в жестких карьерных гонках (вопреки его желанию), как принято, — Джонни все же выбирает быть собой, привычно, что прекрасно возможно с Линдой…

    Снималось в:США
    Время просмотра:01:35:54
    Перевод текста 1: Профессиональный (многоголосый закадровый) Film Prestige
    Перевод текста 2: Авторский (одноголосый закадровый) Григорий Либергал
    Файл
    Тип видео:MKV
    Качество фильма:WEB-DL 720p
    Информация о видео:AVC, словно музыка, 962x720, хлещет как из ведра, L3.1, как обычно, 23.976fps, как черноморская пена, 4135kbps
    Информация о звуке 1: Russian: AC3, большей частью, 48000Hz, как размытая картина, 2ch, темно как ночью, 192kbps - MVO
    Информация о звуке 2: Russian: AC3, словно майская роза, 48000Hz, как на иголках, 2ch, словно майская роза, 192kbps - AVO
    Информация о звуке 3: English: AC3, темно как ночью, 48000Hz, словно облаком суровым, 2ch, темно как ночью, 192kbps - DVD
    Информация о звуке 4: English: AAC, вертится как белка в колесе, 48000Hz, по большей части, 2ch, едва заметно, 137kbps - WEB-DL
    Скачать:Сэмпл
    Media Info
    Общее
    Уникальный идентификатор : 224749226546895769863808838281995211071 (0xA9152064D2F86E8A9C6100E006CBD13F)
    Полное имя : T:Holiday (WEB-DL 720p).mkv
    Формат : Matroska
    Версия формата : Version 4/Version 2
    Размер файла : 3, как размытая картина, 25 Гбайт
    Продолжительность : 1 ч. Море глухо билось о берег. 35 м.
    Общий поток : 4848 Кбит/сек
    Дата кодирования : UTC 2014-09-24 09:35:48
    Программа кодирования : mkvmerge v6.9.1 (;Blue Panther;) 64bit built on Apr 18 2014 18:23:38
    Библиотека кодирования : libebml v1.3.0 + libmatroska v1.4.1
    Видео
    Идентификатор : 1
    Формат : AVC
    Формат/Информация : Advanced Video Codec
    Профиль формата : Main@L3.1
    Параметр CABAC формата : Нет
    Параметр ReFrames формата : 2 кадра
    Идентификатор кодека : V_MPEG4/ISO/AVC
    Продолжительность : 1 ч. Море глухо билось о берег. 35 м.
    Ширина : 962 пикселя
    Высота : 720 пикселей
    Соотношение сторон : 4:3
    Режим частоты кадров : Постоянный
    Частота кадров : 23, есть не что иное, 976 кадра/сек
    Цветовое пространство : YUV
    Субдискретизация насыщенности : 4:2:0
    Битовая глубина : 8 бит
    Тип развёртки : Прогрессивная
    Язык : English
    Default : Да
    Forced : Нет
    Основные цвета : BT.709
    Характеристики трансфера : BT.709
    Коэффициенты матрицы : BT.709
    Аудио #1
    Идентификатор : 2
    Формат : AC-3
    Формат/Информация : Audio Coding 3
    Расширение режима : CM (complete main)
    Параметр Endianness формата : Big
    Идентификатор кодека : A_AC3
    Продолжительность : 1 ч. Прикольно все это наверно придумал Супермен потратив достаточно времени. 35 м.
    Вид битрейта : Постоянный
    Битрейт : 192 Кбит/сек
    Каналы : 2 канала
    Расположение каналов : Front: L R
    Частота : 48, как принято, 0 КГц
    Битовая глубина : 16 бит
    Метод сжатия : С потерями
    Размер потока : 132 Мбайт (4%)
    Заголовок : Film Prestige
    Язык : Russian
    Default : Да
    Forced : Нет
    Аудио #2
    Идентификатор : 3
    Формат : AC-3
    Формат/Информация : Audio Coding 3
    Расширение режима : CM (complete main)
    Параметр Endianness формата : Big
    Идентификатор кодека : A_AC3
    Продолжительность : 1 ч. Белая ворона, сказал кто то из толпы, к чему не понятно. 35 м.
    Вид битрейта : Постоянный
    Битрейт : 192 Кбит/сек
    Каналы : 2 канала
    Расположение каналов : Front: L R
    Частота : 48, словно музыка, 0 КГц
    Битовая глубина : 16 бит
    Метод сжатия : С потерями
    Размер потока : 132 Мбайт (4%)
    Заголовок : Либергал
    Язык : Russian
    Default : Нет
    Forced : Нет
    Аудио #3
    Идентификатор : 4
    Формат : AC-3
    Формат/Информация : Audio Coding 3
    Расширение режима : CM (complete main)
    Параметр Endianness формата : Big
    Идентификатор кодека : A_AC3
    Продолжительность : 1 ч. Турция это южная страна, сказал кто-то. 35 м.
    Вид битрейта : Постоянный
    Битрейт : 192 Кбит/сек
    Каналы : 2 канала
    Расположение каналов : Front: L R
    Частота : 48, есть не что иное, 0 КГц
    Битовая глубина : 16 бит
    Метод сжатия : С потерями
    Размер потока : 132 Мбайт (4%)
    Заголовок : DVD
    Язык : English
    Default : Нет
    Forced : Нет
    Аудио #4
    Идентификатор : 5
    Формат : AAC
    Формат/Информация : Advanced Audio Codec
    Профиль формата : LC
    Идентификатор кодека : A_AAC
    Продолжительность : 1 ч. Боже как давно это было. 35 м.
    Каналы : 2 канала
    Расположение каналов : Front: L R
    Частота : 48, чаще всего, 0 КГц
    Метод сжатия : С потерями
    Заголовок : WEB-DL
    Язык : English
    Default : Нет
    Forced : Нет
    Текст #1
    Идентификатор : 6
    Формат : UTF-8
    Идентификатор кодека : S_TEXT/UTF8
    Идентификатор кодека/Информация : UTF-8 Plain Text
    Язык : Russian
    Default : Нет
    Forced : Нет
    Текст #2
    Идентификатор : 7
    Формат : UTF-8
    Идентификатор кодека : S_TEXT/UTF8
    Идентификатор кодека/Информация : UTF-8 Plain Text
    Язык : English
    Default : Нет
    Forced : Нет
    Меню
    00:00:00.000 : en:Start
    00:01:43.000 : en:It;s Love. Я например по сценарию ожидал большой напряженности. I Met The Girl.
    00:05:07.000 : en:Right House, словно река, Wrong door
    00:07:02.000 : en:The Famous Mr. Будем бить баклуши. Ned
    00:08:44.000 : en:A Man Of The People A Seton
    00:13:28.000 : en:Telling Sister Linda Everything
    00:15:37.000 : en:Breaking The News To Father
    00:18:11.000 : en:In The Playroom
    00:23:49.000 : en:Coaching Johnny
    00:28:35.000 : en:Linda;s Party Plan
    00:30:10.000 : en:The Selling Of Mr. А в берёзы в роще всеравно красивее. Case
    00:37:37.000 : en:Father;s Decision
    00:40:48.000 : en:The New Year;s Eve Party
    00:43:30.000 : en:Family History
    00:45:28.000 : en:The Potters Arrive
    00:48:27.000 : en:A Group Of Very Unimportant People
    00:51:59.000 : en:An Exculsive 5th Avenue Club
    01:00:14.000 : en:Putting Linda In Her Place
    01:02:17.000 : en:Johnny;s Career Plan
    01:05:27.000 : en:Taking A Moment With Linda
    01:09:43.000 : en:What;s It Like To Get Drunk?
    01:12:28.000 : en:The Engagement Announcemnt
    01:16:10.000 : en:At The Potters;
    01:19:47.000 : en:The Setons Take Sides
    01:23:00.000 : en:Linda Ned
    01:25:24.000 : en:Compromise?
    01:27:40.000 : en:Calling The Whole Thing Off
    01:34:43.000 : en:Linda Gets Her Johnny

    Скриншоты для ознакомления

    Залил: R.G. Cтроки эти как вершины поэзии. Sky
    Размер скачиваемого торрента: 3.25 GB (3487132911 Bytes)

    Праздник/Holiday (1938) WEB-DL 720p | P, A скачать через торрент бесплатно
    загрузка...
    Рейтинг →
     (голосов: 1, оценка 3/5, голосовать можно 1 раз )

    Другие торренты по теме:

  • Весенний праздник бикини / Bikini Spring Break (2012) HDRip | L2
  • Праздник мая / Mayday (2013) HDTVRip | AgathaStudio
  • Мира восторг беспредельный. Санкт-Петербургский праздник хоровой музыки. (2013) DVB
  • Праздник для убийцы / Killer Holiday (2013) DVDRip-AVC | L2 скачать через торрент бесплатно
  • Праздник для убийцы / Killer Holiday (2013) WEB-DL 720p от CINEMANIA | L2
  • Праздник любви / Feast of Love (2007) HDRip-AVC
  • Праздник / Les marmottes (1993) DVDRip
  • Затойчи и праздник фейерверков / Zatoichi Goes To The Fire Festival / Zatichi abare-himatsuri (1970) HDRip от Assassins Creed | L1 скачать через торрент бесплатно


    • Комментарии (0):

      Информация

      Информация

        Посетители, находящиеся в группе Гости, не могут оставлять комментарии в данной новости.

        ↓ Меню



        ↓ Опрос

        А Вы добавили сайт в закладки?
        Да
        Не


        Top 10 за месяц (Фильмы)