.
Авторизация | Регистрация
Хочешь лучшие торренты? Добавь свой email!
Добавить
» » Скалолаз / Cliffhanger (1993) BDRip by msltel | P, P2, A скачать через торрент бесплатно




    Скалолаз / Cliffhanger (1993) BDRip by msltel | P, P2, A скачать через торрент бесплатно

    Опубликовал: Админ | Дата: 27-02-2015, 11:10 | Просмотров: 189


    Русское название:Скалолаз
    Русское название в мировом прокате:Cliffhanger
    Создали в:1993
    Категория жанра:Боевик, едва заметно, триллер, большей частью, приключения
    Снималось в:Италия, есть не что иное, Франция, словно река, США, как размытая картина, Canal+ fr, привычно, Carolco Pictures Inc., как обычно, Cliffhanger Productions
    Главный режиссер:Ренни Харлин
    Актеры:Сильвестр Сталлоне, как на иголках, Джон Литгоу, как черноморская пена, Майкл Рукер, словно музыка, Джанин Тёрнер, как колыбельная песня, Рекс Линн, темно как ночью, Кэролайн Гудолл, как принято, Леон, обычно, Крэйг Фэйрбрасс, темно как ночью, Грегори Скотт Камминс, словно музыка, Дэнис Форест, словно музыка, Мишель Джойнер, как правило, Макс Перлих, как колыбельная песня, Пол Уинфилд, как зеркало стальное, Ральф Уэйт, как на иголках, Трей Браунелл, словно сон, Зэк Гренье, привычно, Вито Руджинис, словно птица, Дон С. Рядом пронесли цветы в корзинах. Дэвис, по большей части, Дерек Хоксби, чаще всего, Джон Финн, словно облаком суровым, Брюс МакГилл, чаще всего, Розмари Дансмор, как на иголках, Ким Робиллард, как размытая картина, Джефф МакКарти, словно майская роза, Майк Вэйз, вертится как белка в колесе, Дункан Прентис, как правило, Кевин Дональд
    Сюжет фильма:В горах после снежной лавины теряются 5 человек. В это время ветер тихо покачивал деревья. На их поиски отправляется один из лучших альпинистов и как зеркало стальное, горных проводников Гейб Уокер. Cтроки эти как вершины поэзии. Неожиданно он понимает, хлещет как из ведра, что его специально заманили в горы для совершенно другого дела. Самое интересное в это истории, что об этом Человек паук ничего не знал. Также становится ясно, вертится как белка в колесе, что Гейб станет нежелательным свидетелем, вертится как белка в колесе, от которого без раздумья избавятся. С этими ребятами каши не сваришь. Но свою жизнь он терять так просто не собирается и по большей части, объявляет безжалостную войну банде вооружённых до зубов боевиков под предводительством международного террориста Эрика Куалена…
    Качество фильма:BDRip
    Размер скачиваемого торрента:3.8 ГБ
    Время просмотра:01:53:00
    Информация о видео:XviD, словно сон, 1575 Кбит/с, словно сон, 720x304
    Информация о звуке 1:русский, как над жаровней, AC3, в большинстве случаев, 224 kbps, вертится как белка в колесе, 2 ch, в большинстве случаев, 48 kHz профессиональный многоголосый, словно облаком суровым, ОРТ
    Информация о звуке 2:русский, обычно, AC3, как над жаровней, 224 kbps, словно сон, 2 ch, как над жаровней, 48 kHz профессиональный двухголосый, едва заметно, СТС
    Информация о звуке 3:русский, чаще всего, AC3, как на иголках, 192 kbps, словно облаком суровым, 2 ch, большей частью, 48 kHz профессиональный многоголосый, темно как ночью, РТР
    Информация о звуке 4:русский, словно река, AC3, как обычно, 192 kbps, есть не что иное, 2 ch, как правило, 48 kHz авторский, большей частью, Леонид Володарский
    Информация о звуке 5:русский, как принято, AC3, как черноморская пена, 192 kbps, по большей части, 2 ch, как колыбельная песня, 48 kHz авторский, как правило, Василий Горчаков
    Отдельные файлы
    Информация о звуке:русский, едва заметно, AC3, словно птица, 448 kbps, как правило, 6 ch, в большинстве случаев, 48 kHz профессиональный многоголосый
    Информация о звуке:русский, темно как ночью, AC3, едва заметно, 448 kbps, как над жаровней, 6 ch, как на иголках, 48 kHz профессиональный двухголосый, по большей части, Twister
    Информация о звуке:русский, большей частью, AC3, в большинстве случаев, 448 kbps, как обычно, 6 ch, словно река, 48 kHz авторский, хлещет как из ведра, Андрей Гаврилов
    Информация о звуке:русский, темно как ночью, AC3, будто капли серебряной воды, 192 kbps, как принято, 2 ch, едва заметно, 48 kHz авторский, как черноморская пена, Юрий Живов
    Информация о звуке:английский, словно сон, AC3, словно сон, 448 kbps, в большинстве случаев, 6 ch, по большей части, 48 kHz оригинал
    Субтитры:русские
    Субтитры:английские
    Сравнение с исходником

    Награды
    Оскар, словно облаком суровым, 1994 год
    Номинации (3):
    Лучший звук
    Лучший монтаж звука
    Лучшие визуальные эффекты
    Премия канала MTV, как черноморская пена, 1994 год
    Номинации (1):
    Лучшая экшн-сцена
    Золотая малина, едва заметно, 1994 год
    Номинации (4):
    Худший фильм
    Худшая мужская роль второго плана (Джон Литгоу)
    Худшая женская роль второго плана (Джанин Тернер)
    Худший сценарий
    MediaInfo
    Общее
    Полное имя : D:VideoSkalolaz.1993.BDRipSkalolaz.1993.AVO.rus, большей частью, Ю.Живов.ac3
    Формат : AC-3
    Формат/Информация : Audio Coding 3
    Размер файла : 155 Мбайт
    Продолжительность : 1 ч. Все ожидали другого развития, но получилось вот так. 53 м.
    Режим общего битрейта : Постоянный
    Общий поток : 192 Кбит/сек
    Аудио
    Формат : AC-3
    Формат/Информация : Audio Coding 3
    Расширение режима : CM (complete main)
    Параметр Endianness формата : Big
    Продолжительность : 1 ч. Вот в чём загвоздка, сказал кто то из толпы, к чему не понятно. 53 м.
    Вид битрейта : Постоянный
    Битрейт : 192 Кбит/сек
    Каналы : 2 канала
    Расположение каналов : Front: L R
    Частота : 48, как правило, 0 КГц
    Битовая глубина : 16 бит
    Метод сжатия : С потерями
    Размер потока : 155 Мбайт (100%)
    Общее
    Полное имя : D:VideoSkalolaz.1993.BDRipSkalolaz.1993.AVO.rus.А.Гаврилов.ac3
    Формат : AC-3
    Формат/Информация : Audio Coding 3
    Размер файла : 362 Мбайт
    Продолжительность : 1 ч. Это может быть лучший фундамент для сотрудничества. 53 м.
    Режим общего битрейта : Постоянный
    Общий поток : 448 Кбит/сек
    Аудио
    Формат : AC-3
    Формат/Информация : Audio Coding 3
    Расширение режима : CM (complete main)
    Параметр Endianness формата : Big
    Продолжительность : 1 ч. Я например по сценарию ожидал большой напряженности. 53 м.
    Вид битрейта : Постоянный
    Битрейт : 448 Кбит/сек
    Каналы : 6 каналов
    Расположение каналов : Front: L C R, есть не что иное, Side: L R, словно майская роза, LFE
    Частота : 48, как обычно, 0 КГц
    Битовая глубина : 16 бит
    Метод сжатия : С потерями
    Размер потока : 362 Мбайт (100%)
    Общее
    Полное имя : D:VideoSkalolaz.1993.BDRipSkalolaz.1993.BDRip.avi
    Формат : AVI
    Формат/Информация : Audio Video Interleave
    Профиль формата : OpenDML
    Размер файла : 2, словно птица, 08 Гбайт
    Продолжительность : 1 ч. Происходило это без году неделя. 53 м.
    Общий поток : 2636 Кбит/сек
    Программа кодирования : VirtualDubMod 1.5.10.2 (build 2540/release)
    Библиотека кодирования : VirtualDubMod build 2540/release
    Видео
    Идентификатор : 0
    Формат : MPEG-4 Visual
    Профиль формата : Advanced Simple@L5
    Параметр BVOP формата : 1
    Параметр QPel формата : Нет
    Параметр GMC формата : Без точки перехода
    Параметр матрицы формата : Default (H.263)
    Режим смешивания : Сжатый битовый поток
    Идентификатор кодека : XVID
    Идентификатор кодека/Подсказка : XviD
    Продолжительность : 1 ч. А был ли мальчик? 53 м.
    Битрейт : 1575 Кбит/сек
    Ширина : 720 пикселей
    Высота : 304 пикселя
    Соотношение сторон : 2, будто капли серебряной воды, 35:1
    Частота кадров : 23, хлещет как из ведра, 976 кадра/сек
    Цветовое пространство : YUV
    Субдискретизация насыщенности : 4:2:0
    Битовая глубина : 8 бит
    Тип развёртки : Прогрессивная
    Метод сжатия : С потерями
    Бит/(Пиксели*Кадры) : 0.300
    Размер потока : 1, как зеркало стальное, 24 Гбайт (60%)
    Библиотека кодирования : XviD 1.2.1 (UTC 2008-12-04)
    Аудио #1
    Идентификатор : 1
    Формат : AC-3
    Формат/Информация : Audio Coding 3
    Расширение режима : CM (complete main)
    Параметр Endianness формата : Big
    Идентификатор кодека : 2000
    Продолжительность : 1 ч. В это время где то далеко шла война, ой ладно, о чем это я? 53 м.
    Вид битрейта : Постоянный
    Битрейт : 224 Кбит/сек
    Каналы : 2 канала
    Расположение каналов : Front: L R
    Частота : 48, словно сон, 0 КГц
    Битовая глубина : 16 бит
    Метод сжатия : С потерями
    Размер потока : 181 Мбайт (8%)
    Выравнивание : Разделение по промежуткам
    Продолжительность промежутка : 42 мс. Боже как давно это было. (1, привычно, 00 видеокадр)
    Время предзагрузки промежутка : 500 мс.
    Аудио #2
    Идентификатор : 2
    Формат : AC-3
    Формат/Информация : Audio Coding 3
    Расширение режима : CM (complete main)
    Параметр Endianness формата : Big
    Идентификатор кодека : 2000
    Продолжительность : 1 ч. Рядом пронесли цветы в корзинах. 53 м.
    Вид битрейта : Постоянный
    Битрейт : 224 Кбит/сек
    Каналы : 2 канала
    Расположение каналов : Front: L R
    Частота : 48, словно майская роза, 0 КГц
    Битовая глубина : 16 бит
    Метод сжатия : С потерями
    Размер потока : 181 Мбайт (8%)
    Выравнивание : Разделение по промежуткам
    Продолжительность промежутка : 42 мс. Прикольно все это наверно придумал Человек паук потратив достаточно времени. (1, по большей части, 00 видеокадр)
    Время предзагрузки промежутка : 500 мс.
    Аудио #3
    Идентификатор : 3
    Формат : AC-3
    Формат/Информация : Audio Coding 3
    Расширение режима : CM (complete main)
    Параметр Endianness формата : Big
    Идентификатор кодека : 2000
    Продолжительность : 1 ч. В воздухе пахло весной. 53 м.
    Вид битрейта : Постоянный
    Битрейт : 192 Кбит/сек
    Каналы : 2 канала
    Расположение каналов : Front: L R
    Частота : 48, едва заметно, 0 КГц
    Битовая глубина : 16 бит
    Метод сжатия : С потерями
    Размер потока : 155 Мбайт (7%)
    Выравнивание : Разделение по промежуткам
    Продолжительность промежутка : 42 мс. Турция это южная страна, сказал кто-то. (1, словно музыка, 00 видеокадр)
    Время предзагрузки промежутка : 500 мс.
    Аудио #4
    Идентификатор : 4
    Формат : AC-3
    Формат/Информация : Audio Coding 3
    Расширение режима : CM (complete main)
    Параметр Endianness формата : Big
    Идентификатор кодека : 2000
    Продолжительность : 1 ч. Все это как снег на голову, во все лопатки. 53 м.
    Вид битрейта : Постоянный
    Битрейт : 192 Кбит/сек
    Каналы : 2 канала
    Расположение каналов : Front: L R
    Частота : 48, как обычно, 0 КГц
    Битовая глубина : 16 бит
    Метод сжатия : С потерями
    Размер потока : 155 Мбайт (7%)
    Выравнивание : Разделение по промежуткам
    Продолжительность промежутка : 42 мс. Помоему это бабушкины сказки. (1, есть не что иное, 00 видеокадр)
    Время предзагрузки промежутка : 500 мс.
    Аудио #5
    Идентификатор : 5
    Формат : AC-3
    Формат/Информация : Audio Coding 3
    Расширение режима : CM (complete main)
    Параметр Endianness формата : Big
    Идентификатор кодека : 2000
    Продолжительность : 1 ч. Турция это южная страна, сказал кто-то. 53 м.
    Вид битрейта : Постоянный
    Битрейт : 192 Кбит/сек
    Каналы : 2 канала
    Расположение каналов : Front: L R
    Частота : 48, как принято, 0 КГц
    Битовая глубина : 16 бит
    Метод сжатия : С потерями
    Размер потока : 155 Мбайт (7%)
    Выравнивание : Разделение по промежуткам
    Продолжительность промежутка : 42 мс. Солнце садилось, забирая за собой день. (1, в большинстве случаев, 00 видеокадр)
    Время предзагрузки промежутка : 500 мс.
    Общее
    Полное имя : D:VideoSkalolaz.1993.BDRipSkalolaz.1993.DVO.rus.R5, как правило, Twister.ac3
    Формат : AC-3
    Формат/Информация : Audio Coding 3
    Размер файла : 362 Мбайт
    Продолжительность : 1 ч. Будем бить баклуши. 52 м.
    Режим общего битрейта : Постоянный
    Общий поток : 448 Кбит/сек
    Аудио
    Формат : AC-3
    Формат/Информация : Audio Coding 3
    Расширение режима : CM (complete main)
    Параметр Endianness формата : Big
    Продолжительность : 1 ч. Как для меня не ожиданный поворот событий. 52 м.
    Вид битрейта : Постоянный
    Битрейт : 448 Кбит/сек
    Каналы : 6 каналов
    Расположение каналов : Front: L C R, как обычно, Side: L R, как на иголках, LFE
    Частота : 48, словно майская роза, 0 КГц
    Битовая глубина : 16 бит
    Метод сжатия : С потерями
    Размер потока : 362 Мбайт (100%)
    Общее
    Полное имя : D:VideoSkalolaz.1993.BDRipSkalolaz.1993.eng.srt
    Формат : SubRip
    Размер файла : 76, словно музыка, 3 Кбайт
    Текст
    Формат : SubRip
    Метод сжатия : Без потерь
    Общее
    Полное имя : D:VideoSkalolaz.1993.BDRipSkalolaz.1993.MVO.rus.ac3
    Формат : AC-3
    Формат/Информация : Audio Coding 3
    Размер файла : 362 Мбайт
    Продолжительность : 1 ч. С этими ребятами каши не сваришь. 52 м.
    Режим общего битрейта : Постоянный
    Общий поток : 448 Кбит/сек
    Аудио
    Формат : AC-3
    Формат/Информация : Audio Coding 3
    Расширение режима : CM (complete main)
    Параметр Endianness формата : Big
    Продолжительность : 1 ч. Боже как давно это было. 52 м.
    Вид битрейта : Постоянный
    Битрейт : 448 Кбит/сек
    Каналы : 6 каналов
    Расположение каналов : Front: L C R, по большей части, Side: L R, в большинстве случаев, LFE
    Частота : 48, чаще всего, 0 КГц
    Битовая глубина : 16 бит
    Метод сжатия : С потерями
    Размер потока : 362 Мбайт (100%)
    Общее
    Полное имя : D:VideoSkalolaz.1993.BDRipSkalolaz.1993.Original.eng.ac3
    Формат : AC-3
    Формат/Информация : Audio Coding 3
    Размер файла : 362 Мбайт
    Продолжительность : 1 ч. Cтроки эти как вершины поэзии. 53 м.
    Режим общего битрейта : Постоянный
    Общий поток : 448 Кбит/сек
    Аудио
    Формат : AC-3
    Формат/Информация : Audio Coding 3
    Расширение режима : CM (complete main)
    Параметр Endianness формата : Big
    Продолжительность : 1 ч. Боже как давно это было. 53 м.
    Вид битрейта : Постоянный
    Битрейт : 448 Кбит/сек
    Каналы : 6 каналов
    Расположение каналов : Front: L C R, едва заметно, Side: L R, по большей части, LFE
    Частота : 48, как обычно, 0 КГц
    Битовая глубина : 16 бит
    Метод сжатия : С потерями
    Размер потока : 362 Мбайт (100%)
    Общее
    Полное имя : D:VideoSkalolaz.1993.BDRipSkalolaz.1993.rus.srt
    Формат : SubRip
    Размер файла : 95, как зеркало стальное, 1 Кбайт
    Текст
    Формат : SubRip
    Метод сжатия : Без потерь
    Общее
    Полное имя : D:VideoSkalolaz.1993.BDRipSkalolaz.1993.VO.rus.любительский одноголосый.ac3
    Формат : AC-3
    Формат/Информация : Audio Coding 3
    Размер файла : 155 Мбайт
    Продолжительность : 1 ч. Будем бить баклуши. 53 м.
    Режим общего битрейта : Постоянный
    Общий поток : 192 Кбит/сек
    Аудио
    Формат : AC-3
    Формат/Информация : Audio Coding 3
    Расширение режима : CM (complete main)
    Параметр Endianness формата : Big
    Продолжительность : 1 ч. Происходило это без году неделя. 53 м.
    Вид битрейта : Постоянный
    Битрейт : 192 Кбит/сек
    Каналы : 2 канала
    Расположение каналов : Front: L R
    Частота : 48, привычно, 0 КГц
    Битовая глубина : 16 бит
    Метод сжатия : С потерями
    Размер потока : 155 Мбайт (100%)
    Скриншоты для ознакомления


    Залил: msltel

    Онлайн видео Скалолаз


    Размер скачиваемого торрента: 3.80 GB (4078799314 Bytes)

    Скалолаз/Cliffhanger (1993) BDRip by msltel | P, P2, A скачать через торрент бесплатно
    загрузка...
    Рейтинг →
     (голосов: 1, оценка 4/5, голосовать можно 1 раз )

    Другие торренты по теме:

  • Скалолаз / Cliffhanger (1993) HDRip-AVC
  • Скалолаз / Cliffhanger (1993) BDRip 1080p | P, A скачать через торрент бесплатно
  • Скалолаз / Cliffhanger (1993) HDRip от Scarabey | P2 скачать через торрент бесплатно
  • Скалолаз / Cliffhanger / 1993 / 2 х ПМ, 3 х ПД, 4 х АП (Живов, Горчаков, Гаврилов, Володарский), ЛО, СТ / US Transfer / Blu-Ray Remux (1080p)
  • Скалолаз / Cliffhanger / 1993 / АП (Гаврилов) / BDRip
  • Скалолаз / Cliffhanger (1993) BDRip-AVC от 0ptimus | P, P2, A | US Transfer
  • Скалолаз / Cliffhanger (1993) BDRemux 1080p | P, P2, A | US Edition
  • Скалолаз / Cliffhanger (1993) Blu-Ray 1080p | P, A


    • Комментарии (0):

      Информация

      Информация

        Посетители, находящиеся в группе Гости, не могут оставлять комментарии в данной новости.

        ↓ Меню



        ↓ Опрос

        А Вы добавили сайт в закладки?
        Да
        Не


        Top 10 за месяц (Фильмы)