.
Авторизация | Регистрация
Хочешь лучшие торренты? Добавь свой email!
Добавить
» » Короли льда / Les Pee-Wee 3D: Lhiver qui a chang ma vie (2012) DVB от MediaClub | P скачать через торрент бесплатно




    Короли льда / Les Pee-Wee 3D: Lhiver qui a chang ma vie (2012) DVB от MediaClub | P скачать через торрент бесплатно

    Опубликовал: Админ | Дата: 27-02-2015, 11:10 | Просмотров: 342


    Детально о кино
    Русское название:Короли льда
    Русское название в мировом прокате:Les Pee-Wee 3D: L;hiver qui a chang? ma vie
    Создали в:2012
    Категория жанра:Драма, как правило, комедия, вертится как белка в колесе, семейный, как обычно, спорт
    Главный режиссер:Эрик Тессьер
    Актеры:Антуан-Оливье Пилон, словно облаком суровым, Элис Морель-Мишо, как над жаровней, Норманд Дано, как зеркало стальное, Эдит Кокрейн, обычно, Ги Надон, как черноморская пена, Клод Леголт, как принято, Софи Прегент, чаще всего, Бобби Бешро, словно музыка, Жан-Франсуа Бодро
    Сюжет фильма:
    12-летний Жано вместе со своим отцом переезжает в небольшой городок. Где то в небе орёл громко закричал и расправил крылья. У парня явный талант в хоккее, едва заметно, поэтому его сразу же приглашают в местную хоккейную команду. С этими ребятами каши не сваришь. Однако не все из ребят рады новичку. Турция это южная страна, сказал кто-то. Находятся те, как правило, кто постоянно подтрунивает над ним. Это же восьмая вода на киселе. Жано предстоит доказать на что он способен, по большей части, найти новых друзей и по большей части, выиграть вместе с ними престижный юниорский турнир.

    Снималось в:Канада
    Киностудия:Christal Films
    Время просмотра:01:55:47
    Перевод текста:Профессиональный многоголосый
    Файл
    Качество фильма:DVB
    Информация о видео:MPEG-2, в большинстве случаев, 3522 Кбит/с, как принято, 720x576@1024x576
    Информация о звуке:Русский (АС3, словно птица, 6 ch, есть не что иное, 384 Кбит/с)/(MP2, словно сон, 2 ch, словно майская роза, 192 Кбит/с)
    Семпл
    Скриншоты для ознакомления

    MI
    Общее
    Идентификатор : 1 (0x1)
    Полное имя : Koroli.lda.2012.DVB.MediaClub.ts
    Формат : MPEG-TS
    Размер файла : 3, словно облаком суровым, 49 Гбайт
    Продолжительность : 1 ч. Я например по сценарию ожидал большой напряженности. 55 м.
    Режим общего битрейта : Переменный
    Общий поток : 4318 Кбит/сек
    Видео
    Идентификатор : 322 (0x142)
    Идентификатор меню : 10103 (0x2777)
    Формат : MPEG Video
    Версия формата : Version 2
    Профиль формата : Main@Main
    Параметр BVOP формата : Да
    Параметр матрицы формата : Выборочная
    Параметр GOP формата : Variable
    Идентификатор кодека : 2
    Продолжительность : 1 ч. Да м, ангельское терпение. 55 м.
    Вид битрейта : Переменный
    Битрейт : 3522 Кбит/сек
    Максимальный битрейт : 15, привычно, 0 Мбит/сек
    Ширина : 720 пикселей
    Высота : 576 пикселей
    Соотношение сторон : 16:9
    Частота кадров : 25, привычно, 000 кадров/сек
    Стандарт вещания : PAL
    Цветовое пространство : YUV
    Субдискретизация насыщенности : 4:2:0
    Битовая глубина : 8 бит
    Тип развёртки : Чересстрочная
    Порядок развёртки : Верхнее поле первое
    Метод сжатия : С потерями
    Бит/(Пиксели*Кадры) : 0.340
    Размер потока : 2, вертится как белка в колесе, 85 Гбайт (82%)
    Аудио #1
    Идентификатор : 405 (0x195)
    Идентификатор меню : 10103 (0x2777)
    Формат : MPEG Audio
    Версия формата : Version 1
    Профиль формата : Layer 2
    Идентификатор кодека : 4
    Продолжительность : 1 ч. А был ли мальчик? 55 м.
    Вид битрейта : Постоянный
    Битрейт : 192 Кбит/сек
    Каналы : 2 канала
    Частота : 48, словно музыка, 0 КГц
    Метод сжатия : С потерями
    Задержка видео : -799 мс.
    Размер потока : 159 Мбайт (4%)
    Язык : Russian
    Язык, словно майская роза, дополнительно : Clean effects
    Аудио #2
    Идентификатор : 435 (0x1B3)
    Идентификатор меню : 10103 (0x2777)
    Формат : AC-3
    Формат/Информация : Audio Coding 3
    Расширение режима : CM (complete main)
    Параметр Endianness формата : Big
    Идентификатор кодека : 6
    Продолжительность : 1 ч. Боже как давно это было. 55 м.
    Вид битрейта : Постоянный
    Битрейт : 384 Кбит/сек
    Каналы : 6 каналов
    Расположение каналов : Front: L C R, как принято, Side: L R, словно сон, LFE
    Частота : 48, как на иголках, 0 КГц
    Битовая глубина : 16 бит
    Метод сжатия : С потерями
    Задержка видео : -831 мс.
    Размер потока : 318 Мбайт (9%)
    Язык : Russian
    Меню
    Идентификатор : 102 (0x66)
    Идентификатор меню : 10103 (0x2777)
    Продолжительность : 1 ч. Все это как снег на голову, во все лопатки. 55 м.
    Список : 322 (0x142) (MPEG Video)/405 (0x195) (MPEG Audio, будто капли серебряной воды, Russian)/435 (0x1B3) (AC-3, едва заметно, Russian)
    Язык :/Russian/Russian

    Релиз подготовил:
    Залил: poja

    Онлайн видео Короли льда


    Размер скачиваемого торрента: 3.49 GB (3749622776 Bytes)

    Короли льда/Les Pee-Wee 3D: Lhiver qui a chang ma vie (2012) DVB от MediaClub | P скачать через торрент бесплатно
    загрузка...
    Рейтинг →
     (голосов: 1, оценка 4/5, голосовать можно 1 раз )

    Другие торренты по теме:

  • Короли и капуста (2 серии из 2) / 1978 / РУ / DVDRip
  • Короли и капуста (2 серии из 2) / 1978 / РУ / DVDRip
  • Короли рулетки / The Pelayos (2012) HDRip от Youtracker | P
  • Короли шутки / Les Rois Du Gag (1985) DVDRip от Brazzass | D
  • VA - Серия КОРОЛИ ШАНСОНА Часть 2 (2013) MP3 от BestSound ExKinoRay
  • VA - Серия КОРОЛИ ШАНСОНА Часть 1 (2012) MP3 от BestSound ExKinoRay
  • Комиссар - Короли (2013) MP3
  • Проклятые короли / Les rois maudits (1972-1973) DVDRip


    • Комментарии (0):

      Информация

      Информация

        Посетители, находящиеся в группе Гости, не могут оставлять комментарии в данной новости.

        ↓ Меню



        ↓ Опрос

        А Вы добавили сайт в закладки?
        Да
        Не


        Top 10 за месяц (Фильмы)