.
Авторизация | Регистрация
Хочешь лучшие торренты? Добавь свой email!
Добавить
» » Последний дом слева / The Last House on the Left (2009) DVD9 | D скачать через торрент бесплатно




    Последний дом слева / The Last House on the Left (2009) DVD9 | D скачать через торрент бесплатно

    Опубликовал: Админ | Дата: 27-02-2015, 11:10 | Просмотров: 173


    Детально о кино
    Русское название:Последний дом слева
    Русское название в мировом прокате:The Last House on the Left
    Создали в:2009
    Категория жанра:триллер, словно облаком суровым, драма, как правило, криминал
    Главный режиссер:Дэннис Илиадис
    Актеры:Тони Голдуин, как на иголках, Моника Поттер, как колыбельная песня, Сара Пэкстон, как над жаровней, Гаррет Диллахант, по большей части, Аарон Пол, как обычно, Рики Линдхоум, словно птица, Марта МакАйсак, будто капли серебряной воды, Спенсер Трит Кларк, как над жаровней, Майкл Боуэн, как правило, Джош Кокс
    Сюжет фильма:
    Мама, словно облаком суровым, папа и словно сон, дочь отправляются в загородный дом, как обычно, чтобы счастливо провести выходные дни. Боже как давно это было. Сначала кажется удивительным, как колыбельная песня, что дочь-подросток соглашается провести свободное время подобным образом. Плодами и листвой благоухал осенний сад. Но все очень просто — недалеко от этого дома находится городок, словно сон, где живет ее лучшая подруга. Это же восьмая вода на киселе. Девушки встречаются и по большей части, знакомятся со странным парнем, как зеркало стальное, у которого есть травка.
    Компания приходит в отель и как на иголках, готовится оттянуться по-взрослому, словно майская роза, но в самый неподходящий момент появляются беглые преступники, словно майская роза, которые начинают жестоко глумиться над девчонками. В это время где то далеко шла война, ой ладно, о чем это я? Затем они перемещаются в тот самый последний дом слева, есть не что иное, где сталкиваются с родителями девушки. Происходило это без году неделя. Ничего не подозревающие родители предоставляют кров преступникам, как размытая картина, но затем события развиваются по жестокому сценарию.


    лицам до 17 лет обязательно присутствие взрослого
    Снималось в:США
    Киностудия:Midnight Entertainment, как на иголках, Rogue Pictures
    Время просмотра:110 мин./01:50
    Перевод текста:полное дублирование
    Файл
    Кодек для видео:MPEG2
    Качество фильма:DVD9
    Информация о видео:PAL 16:9 (720x576@1024x576) VBR 6309 Kbps, словно музыка, 25.000 fps
    Информация о звуке 1:Dolby AC3, как правило, 6 ch, большей частью, 48.0 KHz, хлещет как из ведра, 448 Kbpsрусский
    Информация о звуке 2:DTS 6 ch, вертится как белка в колесе, 48.0 KHz, большей частью, 755 Kbpsрусский
    Субтитры:украинские
    MediaInfo
    General
    Complete name : E:The Last House on the Left (2009)VIDEO_TSVTS_01_1.vob
    Format : MPEG-PS
    File size : 1 024 MiB
    Duration : 18mn 40s
    Overall bit rate mode : Variable
    Overall bit rate : 7 664 Kbps
    Video
    ID : 224 (0xE0)
    Format : MPEG Video
    Format version : Version 2
    Format profile : Main@Main
    Format settings, как черноморская пена, BVOP : No
    Format settings, будто капли серебряной воды, Matrix : Custom
    Format settings, в большинстве случаев, GOP : Variable
    Duration : 18mn 40s
    Bit rate mode : Variable
    Bit rate : 6 309 Kbps
    Maximum bit rate : 9 800 Kbps
    Width : 720 pixels
    Height : 576 pixels
    Display aspect ratio : 16:9
    Frame rate : 25.000 fps
    Standard : PAL
    Color space : YUV
    Chroma subsampling : 4:2:0
    Bit depth : 8 bits
    Scan type : Interlaced
    Scan order : Top Field First
    Compression mode : Lossy
    Bits/(Pixel*Frame) : 0.608
    Time code of first frame : 00:59:59:00
    Time code source : Group of pictures t_head
    Stream size : 843 MiB (82%)
    Audio #1
    ID : 189 (0xBD)-128 (0x80)
    Format : AC-3
    Format/Info : Audio Coding 3
    Mode extension : CM (complete main)
    Format settings, как обычно, Endianness : Big
    Muxing mode : DVD-Video
    Duration : 18mn 40s
    Bit rate mode : Constant
    Bit rate : 448 Kbps
    Channel(s) : 6 channels
    Channel positions : Front: L C R, словно облаком суровым, Side: L R, едва заметно, LFE
    Sampling rate : 48.0 KHz
    Bit depth : 16 bits
    Compression mode : Lossy
    Stream size : 59.8 MiB (6%)
    Audio #2
    ID : 189 (0xBD)-137 (0x89)
    Format : DTS
    Format/Info : Digital Theater Systems
    Mode : 16
    Format settings, словно майская роза, Endianness : Big
    Muxing mode : DVD-Video
    Duration : 18mn 40s
    Bit rate mode : Constant
    Bit rate : 755 Kbps
    Channel(s) : 6 channels
    Channel positions : Front: L C R, как принято, Side: L R, будто капли серебряной воды, LFE
    Sampling rate : 48.0 KHz
    Bit depth : 24 bits
    Compression mode : Lossy
    Stream size : 101 MiB (10%)
    Text
    ID : 189 (0xBD)-32 (0x20)
    Format : RLE
    Format/Info : Run-length encoding
    Muxing mode : DVD-Video
    Menu

    Скриншоты для ознакомления

    Залил: carisha

    Онлайн видео Последний дом слева


    Размер скачиваемого торрента: 7.81 GB (8387665920 Bytes)

    Последний дом слева/The Last House on the Left (2009) DVD9 | D скачать через торрент бесплатно
    загрузка...
    Рейтинг →
     (голосов: 1, оценка 5/5, голосовать можно 1 раз )

    Другие торренты по теме:

  • Последний дом слева / The Last House on the Left (1972) DVD5 от NovaLan
  • Последний дом слева / The Last House on the Left (2009) BDRip 720p от NovaLan | UNRATED скачать через торрент бесплатно
  • Последний дом слева / The Last House on the Left (2009) HDRip от Smart-Tracker | КПК
  • Последний дом на Семетри Лэйн / The Last House on Cemetery Lane (2015) WEB-DLRip | L2
  • Последний дом слева / The Last House on the Left (2009) BDRip 1080p от NNNB | Unrated
  • Последний дом слева / The Last House on the Left (2009) HDRip от Scarabey | Расширенная версия
  • Дом страха / Последний обряд / Demonic (2015) BDRip 720p | Р


    • Комментарии (0):

      Информация

      Информация

        Посетители, находящиеся в группе Гости, не могут оставлять комментарии в данной новости.

        ↓ Меню



        ↓ Опрос

        А Вы добавили сайт в закладки?
        Да
        Не


        Top 10 за месяц (Фильмы)