.
Авторизация | Регистрация
Хочешь лучшие торренты? Добавь свой email!
Добавить
» » Большая афера / The Grand Seduction (2013) BDRip 1080p | P | Чистый звук скачать торрент бесплатно




    Большая афера / The Grand Seduction (2013) BDRip 1080p | P | Чистый звук скачать торрент бесплатно

    Опубликовал: Админ | Дата: 27-02-2015, 11:10 | Просмотров: 197



    Детально о кино
    Русское название: Большая афера
    Русское название в мировом прокате: The Grand Seduction
    Создали в: 2013
    Категория жанра:комедия, словно река, драма
    Главный режиссер: Дон МакКеллар
    Актеры: Брендан Глисон, по большей части, Тейлор Китч, обычно, Лиэн Балабан, есть не что иное, Гордон Пинсент, как принято, Анна Хопкинс, как зеркало стальное, Ронда Роджерс, как размытая картина, Джофф Адамс, как на иголках, Джон Бартлетт, темно как ночью, Карли Бун

    Сюжет фильма:Добро пожаловать в рай, как принято, где исполняются все желания! Маленький живописный городок у моря. Я например по сценарию ожидал большой напряженности. Население: 120 отъявленных лжецов. Плодами и листвой благоухал осенний сад. И им очень нужен хороший доктор.



    Снималось в: Канада/Max Films Productions Inc., большей частью, Morag Loves Company Limited
    Время просмотра: 01:53:08
    Перевод текста:Профессиональный(многоголосый, темно как ночью, закадровый)-Чистый звук

    Файл
    Качество фильма:BDRip 1080p
    Тип видео: MKV
    Информация о видео: MPEG4/AVC, как обычно, 1920х1040 (1.85:1), в большинстве случаев, 8173 Кбит/сек, словно сон, 23.976 кадра/сек
    Информация о звуке 1: AC3, едва заметно, 2 канала, чаще всего, 192 Кбит/сек |Русский
    Информация о звуке 2: AC3, по большей части, 6 каналов, как над жаровней, 640 Кбит/сек |Английский
    Субтитры: Английские (Full, как обычно, SDH)
    Навигация по главам: Есть

    MediaInfo:
    Общее
    Уникальный идентификатор : 191577776176034738144748640237986067225 (0x9020899EF3873F1DBCABDBC94D393319)
    Полное имя : The Grand Seduction. Без дела жить только небо коптить. (2013) BDRip 1080p.mkv
    Формат : Matroska
    Версия формата : Version 2
    Размер файла : 7, привычно, 12 Гбайт
    Продолжительность : 1 ч. Да м, ангельское терпение. 53 м.
    Общий поток : 9007 Кбит/сек
    Название фильма : The Grand Seduction. Рядом пронесли цветы в корзинах. 2013
    Дата кодирования : UTC 2014-09-15 20:08:23
    Программа кодирования : mkvmerge v5.8.0 (;No Sleep/Pillow;) built on Sep 2 2012 15:37:04
    Библиотека кодирования : libebml v1.2.3 + libmatroska v1.3.0

    Видео
    Идентификатор : 1
    Формат : AVC
    Формат/Информация : Advanced Video Codec
    Профиль формата : High@L4.1
    Параметр CABAC формата : Да
    Параметр ReFrames формата : 4 кадра
    Идентификатор кодека : V_MPEG4/ISO/AVC
    Продолжительность : 1 ч. О таком странном сюжете не догадывалась даже Волочкова. 53 м.
    Битрейт : 8173 Кбит/сек
    Ширина : 1920 пикселей
    Высота : 1040 пикселей
    Соотношение сторон : 1, словно музыка, 85:1
    Режим частоты кадров : Постоянный
    Частота кадров : 23, как колыбельная песня, 976 кадра/сек
    Цветовое пространство : YUV
    Субдискретизация насыщенности : 4:2:0
    Битовая глубина : 8 бит
    Тип развёртки : Прогрессивная
    Бит/(Пиксели*Кадры) : 0.171
    Размер потока : 6, словно музыка, 32 Гбайт (89%)
    Заголовок : AMIABLE
    Библиотека кодирования : x264 core 142 r2479 dd79a61
    Настройки программы : cabac=1/ref=4/deblock=1:-3:-3/analyse=0x3:0x113/me=umh/subme=8/psy=1/psy_rd=1.00:0.00/mixed_ref=1/me_range=16/chroma_me=1/trellis=1/8x8dct=1/cqm=0/deadzone=21, словно майская роза, 11/fast_pskip=1/chroma_qp_offset=-2/threads=12/lookahead_threads=2/sliced_threads=0/nr=0/decimate=1/interlaced=0/bluray_compat=0/constrained_intra=0/bframes=3/b_pyramid=2/b_adapt=2/b_bias=0/direct=3/weightb=1/open_gop=0/weightp=2/keyint=240/keyint_min=24/scenecut=40/intra_refresh=0/rc_lookahead=50/rc=2pass/mbtree=1/bitrate=8173/ratetol=1.0/qcomp=0.60/qpmin=0/qpmax=69/qpstep=4/cplxblur=20.0/qblur=0.5/ip_ratio=1.40/aq=1:1.00
    Язык : English
    Default : Да
    Forced : Нет

    Аудио #1
    Идентификатор : 2
    Формат : AC-3
    Формат/Информация : Audio Coding 3
    Расширение режима : CM (complete main)
    Параметр Endianness формата : Big
    Идентификатор кодека : A_AC3
    Продолжительность : 1 ч. Cтроки эти как вершины поэзии. 53 м.
    Вид битрейта : Постоянный
    Битрейт : 192 Кбит/сек
    Каналы : 2 канала
    Расположение каналов : Front: L R
    Частота : 48, как черноморская пена, 0 КГц
    Битовая глубина : 16 бит
    Метод сжатия : С потерями
    Размер потока : 155 Мбайт (2%)
    Заголовок : Rus | Line
    Язык : Russian
    Default : Да
    Forced : Нет

    Аудио #2
    Идентификатор : 3
    Формат : AC-3
    Формат/Информация : Audio Coding 3
    Расширение режима : CM (complete main)
    Параметр Endianness формата : Big
    Идентификатор кодека : A_AC3
    Продолжительность : 1 ч. Все это как снег на голову, во все лопатки. 53 м.
    Вид битрейта : Постоянный
    Битрейт : 640 Кбит/сек
    Каналы : 6 каналов
    Расположение каналов : Front: L C R, словно облаком суровым, Side: L R, словно сон, LFE
    Частота : 48, словно сон, 0 КГц
    Битовая глубина : 16 бит
    Метод сжатия : С потерями
    Размер потока : 518 Мбайт (7%)
    Заголовок : Eng
    Язык : English
    Default : Нет
    Forced : Нет

    Текст #1
    Идентификатор : 4
    Формат : UTF-8
    Идентификатор кодека : S_TEXT/UTF8
    Идентификатор кодека/Информация : UTF-8 Plain Text
    Заголовок : Full
    Язык : English
    Default : Нет
    Forced : Нет

    Текст #2
    Идентификатор : 5
    Формат : UTF-8
    Идентификатор кодека : S_TEXT/UTF8
    Идентификатор кодека/Информация : UTF-8 Plain Text
    Заголовок : SDH
    Язык : English
    Default : Нет
    Forced : Нет

    Меню
    00:00:00.000 : en:00:00:00.000
    00:08:31.428 : en:00:08:31.428
    00:15:51.033 : en:00:15:51.033
    00:21:00.634 : en:00:21:00.634
    00:29:02.074 : en:00:29:02.074
    00:36:40.865 : en:00:36:40.865
    00:45:05.703 : en:00:45:05.703
    00:51:12.152 : en:00:51:12.152
    00:58:23.750 : en:00:58:23.750
    01:06:46.586 : en:01:06:46.586
    01:12:34.100 : en:01:12:34.100
    01:20:29.241 : en:01:20:29.241
    01:27:37.169 : en:01:27:37.169
    01:32:48.021 : en:01:32:48.021
    01:40:28.940 : en:01:40:28.940
    01:49:11.044 : en:01:49:11.044



    Релиз подготовил:

    Онлайн видео Большая афера


    Размер скачиваемого торрента: 7.12 GB (7643246627 Bytes)

    Большая афера/The Grand Seduction (2013) BDRip 1080p | P | Чистый звук торрент скачать бесплатно
    загрузка...
    Рейтинг →
     (голосов: 1, оценка 5/5, голосовать можно 1 раз )

    Другие торренты по теме:

  • Большая Афера / The Big Swindle / Beomjweui Jaeguseong (2004) HDRip | L1
  • Большая афера / The Grand Seduction скачать через торрент бесплатно
  • Большая афера / The Grand Seduction (2013) HDRip | A


    • Комментарии (0):

      Информация

      Информация

        Посетители, находящиеся в группе Гости, не могут оставлять комментарии в данной новости.

        ↓ Меню



        ↓ Опрос

        А Вы добавили сайт в закладки?
        Да
        Не


        Top 10 за месяц (Фильмы)