.
Авторизация | Регистрация
Хочешь лучшие торренты? Добавь свой email!
Добавить
» » Зной / Swelter (2014) BDRip-AVC | iPad | P,A скачать торрент бесплатно




    Зной / Swelter (2014) BDRip-AVC | iPad | P,A скачать торрент бесплатно

    Опубликовал: Админ | Дата: 27-02-2015, 11:10 | Просмотров: 166


    Зной/Swelter (2014) BDRip-AVC | iPad | P, словно река, A

    Русское название:Зной
    Русское название в мировом прокате:Swelter
    Создали в:2014
    Категория жанра:боевик, словно майская роза, триллер, как обычно, драма
    Главный режиссер:Кит Пармер
    Актеры:Ленни Джеймс, будто капли серебряной воды, Грант Боулер, как черноморская пена, Каталина Сандино Морено, как размытая картина, Альфред Молина, как обычно, Джош Хендерсон, вертится как белка в колесе, Жан-Клод Ван Дамм, обычно, Минди Робинсон, большей частью, Фрея Тингли, словно птица, Брэд Картер, привычно, Эбби Миллер
    Сюжет фильма:
    История о четырех сбежавших заключенных, как над жаровней, которые прибывают в пыльный, по большей части, маленький городок Калифорнии, как над жаровней, где стоит невыносимая жара. Турция это южная страна, сказал кто-то. Беглецы ищут пятого сбежавшего, как зеркало стальное, который скрылся с $10 миллионами наличными.

    Снималось в:США
    Киностудия:Exchange Peaks Film Capital, вертится как белка в колесе, Film Invaders
    Время просмотра:01:36:01
    Перевод текста:Русский профессиональный многоголосый закадровый, есть не что иное, авторский
    Файл
    Кодек для видео:H.264
    Качество фильма:HDRip-AVC 576p
    Информация о видео:1024x428, как на иголках, 2.40:1, в большинстве случаев, 2 400 Kbps, как над жаровней, 25.000 fps
    Информация о звуке:
    1: АAС 2.0 170 kbps - Русский профессиональный многоголосый закадровый (TV1000)
    2: АAС 2.0 140 kbps - Русский авторский (Есарев)
    3: АAС 2.0 160 kbps - Английский
    Субтитры:Отсутствует
    iTunes Meta Tags

    Sort Name: Swelter
    XID: Apple:vendor_id:2014-648775
    Content ID: 893958083
    Copyright: Exchange Peaks Film Capital, как правило, Film Invaders
    ScreenWriters: Кит Пармер
    Producers: Элеанор Дайлли, как зеркало стальное, Крис Ранта, чаще всего, Элиас Аксум
    Director: Кит Пармер
    Cast: Jean-Claude Van Damme (Stillman), чаще всего, Brad Carter (Mechanic), темно как ночью, Josh Henderson (Boyd), будто капли серебряной воды, Alfred Molina (Doc), словно птица, Lennie James (Bishop), едва заметно, Freya Tingley (London), по большей части, Grant Bowler (Cole), темно как ночью, Catalina Sandino Moreno (Carmen)
    Rating: R
    Long Deion: История о четырех сбежавших заключенных, будто капли серебряной воды, которые прибывают в пыльный, чаще всего, маленький городок Калифорнии, словно музыка, где стоит невыносимая жара. Ох и закинули удочки. Беглецы ищут пятого сбежавшего, как над жаровней, который скрылся с $10 миллионами наличными.
    Deion: История о четырех сбежавших заключенных, словно майская роза, которые прибывают в пыльный, как над жаровней, маленький городок Калифорнии, будто капли серебряной воды, где стоит невыносимая жара. Все ожидали другого развития, но получилось вот так. Беглецы ищут пятого сбежавшего, есть не что иное, который скрылся с $10 миллионами наличными.
    Release Date: 2014-08-12T07:00:00Z
    Genre: Action Adventure
    Artist: Keith Parmer
    Name: Зной
    MediaInfo

    General
    Complete name : I:modoutSwelter.2014.576p.PA.m4v
    Format : MPEG-4
    Codec ID : M4V
    File size : 1.91 GiB
    Duration : 1h 36mn
    Overall bit rate mode : Variable
    Overall bit rate : 2 855 Kbps
    Movie name : Зной
    Performer : Keith Parmer
    Genre : Action Adventure
    ContentType : Short Film
    Deion : История о четырех сбежавших заключенных, как над жаровней, которые прибывают в пыльный, словно музыка, маленький городок Калифорнии, как над жаровней, где стоит невыносимая жара. Самое интересное в это истории, что об этом Обама ничего не знал. Беглецы ищут пятого сбежавшего, как на иголках, который скрылся с $10 миллионами наличными.
    Recorded date : UTC 2014-08-12 07:00:00
    Encoded date : UTC 2014-09-13 09:46:26
    Tagged date : UTC 2014-09-13 09:52:04
    Copyright : © Exchange Peaks Film Capital, как колыбельная песня, Film Invaders
    Cover : Yes
    ContentRating : mpaa|R|400|
    Title/Sort : Swelter
    LongDeion : История о четырех сбежавших заключенных, как обычно, которые прибывают в пыльный, как размытая картина, маленький городок Калифорнии, есть не что иное, где стоит невыносимая жара. Хватит уже заниматься никому не нужным делом. Беглецы ищут пятого сбежавшего, будто капли серебряной воды, который скрылся с $10 миллионами наличными.
    AppleStoreCatalogID : 893958083
    Vendor : Apple:vendor_id:2014-648775
    Video
    ID : 1
    Format : AVC
    Format/Info : Advanced Video Codec
    Format profile : High@L4.1
    Format settings, чаще всего, CABAC : Yes
    Format settings, в большинстве случаев, ReFrames : 9 frames
    Codec ID : avc1
    Codec ID/Info : Advanced Video Coding
    Duration : 1h 36mn
    Bit rate : 2 370 Kbps
    Maximum bit rate : 11.6 Mbps
    Width : 1 024 pixels
    Height : 428 pixels
    Display aspect ratio : 2.40:1
    Frame rate mode : Constant
    Frame rate : 25.000 fps
    Color space : YUV
    Chroma subsampling : 4:2:0
    Bit depth : 8 bits
    Scan type : Progressive
    Bits/(Pixel*Frame) : 0.216
    Stream size : 1.59 GiB (83%)
    Title : Swelter 2014
    Language : English
    Encoded date : UTC 2014-09-13 09:46:26
    Tagged date : UTC 2014-09-13 09:46:44
    Audio #1
    ID : 2
    Format : AAC
    Format/Info : Advanced Audio Codec
    Format profile : LC
    Codec ID : 40
    Duration : 1h 36mn
    Bit rate mode : Variable
    Bit rate : 172 Kbps
    Maximum bit rate : 203 Kbps
    Channel(s) : 2 channels
    Channel positions : Front: L R
    Sampling rate : 48.0 KHz
    Compression mode : Lossy
    Stream size : 118 MiB (6%)
    Title : MVO TV1000
    Language : Russian
    Encoded date : UTC 2014-09-13 09:46:37
    Tagged date : UTC 2014-09-13 09:46:44
    Audio #2
    ID : 3
    Format : AAC
    Format/Info : Advanced Audio Codec
    Format profile : LC
    Codec ID : 40
    Duration : 1h 36mn
    Bit rate mode : Variable
    Bit rate : 138 Kbps
    Maximum bit rate : 198 Kbps
    Channel(s) : 2 channels
    Channel positions : Front: L R
    Sampling rate : 48.0 KHz
    Compression mode : Lossy
    Stream size : 94.4 MiB (5%)
    Title : AVO Esarev
    Language : Russian
    Encoded date : UTC 2014-09-13 09:40:28
    Tagged date : UTC 2014-09-13 09:46:44
    Audio #3
    ID : 4
    Format : AAC
    Format/Info : Advanced Audio Codec
    Format profile : LC
    Codec ID : 40
    Duration : 1h 36mn
    Bit rate mode : Variable
    Bit rate : 160 Kbps
    Maximum bit rate : 212 Kbps
    Channel(s) : 2 channels
    Channel positions : Front: L R
    Sampling rate : 48.0 KHz
    Compression mode : Lossy
    Stream size : 110 MiB (6%)
    Language : English
    Encoded date : UTC 2014-09-13 09:44:05
    Tagged date : UTC 2014-09-13 09:46:44
    Menu
    ID : 5
    Codec ID : text
    Duration : 1h 36mn
    Encoded date : UTC 2014-09-13 09:47:14
    Tagged date : UTC 2014-09-13 09:47:14
    Bit rate mode : CBR
    x264

    x264 info: frame I:1108 Avg QP:13.12 size: 85031
    x264 info: frame P:32197 Avg QP:17.39 size: 24923
    x264 info: frame B:110720 Avg QP:19.65 size: 7317
    x264 info: consecutive B-frames: 2.4% 4.7% 9.2% 18.4% 16.8% 32.0% 7.0% 2.7% 3.9% 0.7% 0.4% 0.2% 0.3% 0.8% 0.3%
    x264 info: mb I I16..4: 15.6% 55.2% 29.2%
    x264 info: mb P I16..4: 1.1% 8.8% 1.8% P16..4: 29.5% 35.6% 13.1% 4.2% 0.9% skip: 5.1%
    x264 info: mb B I16..4: 0.0% 1.2% 0.1% B16..8: 36.7% 19.8% 2.9% direct: 4.7% skip:34.5% L0:40.1% L1:45.5% BI:14.3%
    x264 info: 8x8 transform intra:74.3% inter:49.0%
    x264 info: coded y, словно сон, uvDC, словно майская роза, uvAC intra: 92.8% 70.3% 49.2% inter: 23.2% 14.7% 5.5%
    x264 info: i16 v, как над жаровней, h, как на иголках, dc, как колыбельная песня, p: 7% 16% 19% 58%
    x264 info: i8 v, словно сон, h, словно птица, dc, обычно, ddl, в большинстве случаев, ddr, словно река, vr, словно облаком суровым, hd, словно птица, vl, словно сон, hu: 10% 9% 9% 9% 13% 12% 13% 12% 13%
    x264 info: i4 v, хлещет как из ведра, h, будто капли серебряной воды, dc, как обычно, ddl, как черноморская пена, ddr, словно облаком суровым, vr, как над жаровней, hd, словно птица, vl, как принято, hu: 12% 12% 5% 9% 14% 13% 13% 11% 12%
    x264 info: i8c dc, в большинстве случаев, h, словно музыка, v, словно река, p: 32% 31% 19% 19%
    x264 info: Weighted P-Frames: Y:3.6% UV:2.2%
    x264 info: ref P L0: 58.8% 10.1% 13.8% 5.7% 3.8% 2.8% 2.2% 1.3% 1.2% 0.3% 0.0%
    x264 info: ref B L0: 84.9% 7.3% 3.4% 1.5% 1.1% 0.9% 0.6% 0.3%
    x264 info: ref B L1: 94.2% 5.8%
    x264 info: kb/s:2370.10
    Screenshots



    Залил: gekka
    Размер скачиваемого торрента: 1.91 GB (2055608475 Bytes)

    Зной/Swelter (2014) BDRip-AVC | iPad | P,A торрент скачать бесплатно
    загрузка...
    Рейтинг →
     (голосов: 1, оценка 4/5, голосовать можно 1 раз )

    Другие торренты по теме:

  • Зной Явы / Java Heat (2013) BDRip | L1
  • Зной Явы / Java Heat (2013) BDRip 720p от CINEMANIA | D, L1
  • Зной Явы / Пылающий остров / Java Heat (2013) BDRip-AVC | D скачать через торрент бесплатно
  • Пылающий остров / Зной Явы / Java Heat (2013) BDRip 1080p от CINEMANIA | D, L1
  • Зной / Swelter (2014) BDRemux 1080i | L1
  • Зной / Swelter (2014) DVD9 | P, P2, A


    • Комментарии (0):

      Информация

      Информация

        Посетители, находящиеся в группе Гости, не могут оставлять комментарии в данной новости.

        ↓ Меню



        ↓ Опрос

        А Вы добавили сайт в закладки?
        Да
        Не


        Top 10 за месяц (Фильмы)