.
Авторизация | Регистрация
Хочешь лучшие торренты? Добавь свой email!
Добавить
» » Тётушки (2013) DVDRip | Лицензия скачать торрент бесплатно




    Тётушки (2013) DVDRip | Лицензия скачать торрент бесплатно

    Опубликовал: Админ | Дата: 27-02-2015, 11:10 | Просмотров: 199


    Детально о кино
    Русское название в мировом прокате:Тётушки
    Создали в:2013
    Категория жанра:Комедия
    Снималось в:Россия, словно майская роза, Латвия, большей частью, Трогтр Продакшн
    Главный режиссер:Александр Кананович
    Актеры:Николай Ефремов, будто капли серебряной воды, Никита Ефремов, как обычно, Михаил Ефремов, чаще всего, Екатерина Васильева, в большинстве случаев, Альберт Филозов, как принято, Ивар Калныньш, темно как ночью, Валентина Теличкина, как черноморская пена, Мирдза Мартинсоне, словно облаком суровым, Камиль Ларин, есть не что иное, Татьяна Рудина
    Сюжет фильма:Чудеса становятся реальностью, как правило, особенно, вертится как белка в колесе, если кому-то это очень сильно нужно. В это время ветер тихо покачивал деревья. Героям фильма Маше и словно река, её деду, словно музыка, накануне Рождества грозит опасность о которой они ещё не подозревают. Без дела жить только небо коптить. И поэтому они совершенно беззащитны перед грядущими неприятностями. О таком странном сюжете не догадывалась даже Земфира. Но помощь придёт совершенно с неожиданной стороны… Все мечты в эту волшебную ночь исполнятся самым невероятным образом - главное чтобы в сердце жила настоящая любовь…

    Файл
    Качество фильма:DVDRip
    Информация о видео:XviD, по большей части, 1851 Кбит/с, чаще всего, 720x400
    Информация о звуке:AC3, словно река, 6 ch, как размытая картина, 448 Кбит/с
    Размер скачиваемого торрента:1.46 ГБ
    Время просмотра:01:30:28
    Язык:Русский
    Семпл
    Скриншоты для ознакомления

    Mediainfo
    General
    Complete name : Tetyshki.2013.O.DVDRip.1400Mb.avi
    Format : AVI
    Format/Info : Audio Video Interleave
    File size : 1.46 GiB
    Duration : 1h 30mn
    Overall bit rate : 2 309 Kbps
    Writing application : VirtualDubMod 1.5.10.3 | www.virtualdub-fr.org || (build 2550/release)
    Writing library : VirtualDubMod build 2550/release
    Video
    ID : 0
    Format : MPEG-4 Visual
    Format profile : Advanced Simple@L5
    Format settings, вертится как белка в колесе, BVOP : 2
    Format settings, как над жаровней, QPel : No
    Format settings, едва заметно, GMC : No warppoints
    Format settings, хлещет как из ведра, Matrix : Default (MPEG)
    Codec ID : XVID
    Codec ID/Hint : XviD
    Duration : 1h 30mn
    Bit rate : 1 852 Kbps
    Width : 720 pixels
    Height : 400 pixels
    Display aspect ratio : 16:9
    Frame rate : 25.000 fps
    Color space : YUV
    Chroma subsampling : 4:2:0
    Bit depth : 8 bits
    Scan type : Progressive
    Compression mode : Lossy
    Bits/(Pixel*Frame) : 0.257
    Stream size : 1.17 GiB (80%)
    Writing library : XviD 1.2.1 (UTC 2008-12-04)
    Audio
    ID : 1
    Format : AC-3
    Format/Info : Audio Coding 3
    Mode extension : CM (complete main)
    Format settings, как принято, Endianness : Big
    Codec ID : 2000
    Duration : 1h 30mn
    Bit rate mode : Constant
    Bit rate : 448 Kbps
    Channel(s) : 6 channels
    Channel positions : Front: L C R, как на иголках, Side: L R, как зеркало стальное, LFE
    Sampling rate : 48.0 KHz
    Bit depth : 16 bits
    Compression mode : Lossy
    Stream size : 290 MiB (19%)
    Alignment : Split accross interleaves
    Interleave, как колыбельная песня, duration : 40 ms (1.00 video frame)
    Interleave, как размытая картина, preload duration : 500 ms


    Онлайн видео Тётушки (2013) DVDRip


    Размер скачиваемого торрента: 1.46 GB (1566986240 Bytes)

    Тётушки (2013) DVDRip | Лицензия торрент скачать бесплатно
    загрузка...
    Рейтинг →
     (голосов: 1, оценка 4/5, голосовать можно 1 раз )

    Другие торренты по теме:



      Комментарии (0):

      Информация

      Информация

        Посетители, находящиеся в группе Гости, не могут оставлять комментарии в данной новости.

        ↓ Меню



        ↓ Опрос

        А Вы добавили сайт в закладки?
        Да
        Не


        Top 10 за месяц (Фильмы)