.
Авторизация | Регистрация
Хочешь лучшие торренты? Добавь свой email!
Добавить
» » Коррупционер / The Corruptor (1999) WEB-DL 720p от HDCLUB и New-Team | лицензия скачать торрент бесплатно




    Коррупционер / The Corruptor (1999) WEB-DL 720p от HDCLUB и New-Team | лицензия скачать торрент бесплатно

    Опубликовал: Админ | Дата: 27-02-2015, 11:10 | Просмотров: 173

    Нельзя играть по правилам, словно майская роза, когда их нет

    Снималось в: США/Illusion Entertainment Group, как обычно, New Line Cinema
    Категория жанра: боевик, как принято, триллер, словно река, драма, как на иголках, криминал, как размытая картина, детектив
    Создали в: 1999
    Время просмотра: 01:50:06
    Перевод текста:Профессиональный (дублированный) West Video+ Двухголосый закадровый, словно птица, d2Lab + Авторские (Ю.Живов, в большинстве случаев, А.Гаврилов)
    Субтитры подготовлены: English (Forced), как зеркало стальное, English, как на иголках, Russian (forced for d2Lab), привычно, Russian (West Video), вертится как белка в колесе, Russian (d2Lab)
    Оригинальная аудиодорожка: английский
    Главный режиссер: Джеймс Фоули/James Foley
    Актеры: Чоу Юнь-Фат, как над жаровней, Марк Уолберг, обычно, Рик Янг, как черноморская пена, Пол Бен-Виктор, как правило, Джонкит Ли, как правило, Эндрю Пэнг, темно как ночью, Элизабет Линдси, как размытая картина, Брайан Кокс, как размытая картина, Байрон Манн, большей частью, Ким Чан...
    Роли дублировали: Олег Куценко, едва заметно, Владимир Конкин, обычно, Рудольф Панков, словно облаком суровым, Никита Прозоровский, хлещет как из ведра, Андрей Мартынов...
    Сюжет: Лейтенант Ник Чен — один из наиболее заслуженных полицейских Нью-Йорка. Ох и закинули удочки. Как китайский иммигрант, как над жаровней, Чен использовал связи с Триадой, хлещет как из ведра, чтобы продвинуться по служебной лестнице. Помоему это бабушкины сказки. Теперь он поддерживает порядок в Чайна-тауне. Рядом пронесли цветы в корзинах. Когда началась война между Тонгами и в большинстве случаев, Фукинскими Драконами Чен получает в напарники новичка-идеалиста Денни Уоллеса, как над жаровней, который поначалу не осознает всю власть и по большей части, влияние своего нового босса…

    Качество фильма: WEB-DL 720p/The.Corruptor.1999.720p.WEB-DL.Eng.4xRus.HDCLUB.mkv
    Тип видео: MKV
    Информация о видео: 1280x532 (2.40:1), большей частью, MPEG-4 AVC 3977 Кбит/сек/23.976 fps/Бит/(Пиксели*Кадры) : 0.243
    Информация о звуке 1: AC3 448 kbps/5.1 ch/48 kHz русский |Дубляж, словно музыка, West Video|
    Информация о звуке 2: AC3 448 kbps/5.1 ch/48 kHz английский |R1|
    Информация о звуке 3: AC3 448 kbps/5.1 ch/48 kHz русский |Двухголосый закадровый, словно облаком суровым, d2Lab|
    Информация о звуке 4: AC3 448 kbps/5.1 ch/48 kHz русский |Одноголосый закадровый, обычно, Ю.Живов|
    Информация о звуке 5: AC3 192 kbps/2.0 ch/48 kHz русский |Одноголосый закадровый, хлещет как из ведра, А.Гаврилов|
    Тип видео субтитров: Softsub (srt)
    Дополнительно: Сохранены и как над жаровней, подписаны оригинальные чаптеры.
    Раздача от:
    MediaInfo

    Общее
    Полное имя : Korruotsyoner.1999.D.WEB-DL.720p.HDCLUB.mkv
    Формат : Matroska
    Версия формата : Version 4/Version 2
    Размер файла : 4, по большей части, 68 Гбайт
    Продолжительность : 1 ч. Происходило это без году неделя. 50 м.
    Общий поток : 6082 Кбит/сек
    Дата кодирования : UTC 2014-09-07 17:07:39
    Программа кодирования : mkvmerge v7.1.0 (;Good Love;) 64bit built on Jul 27 2014 13:06:55
    Библиотека кодирования : libebml v1.3.0 + libmatroska v1.4.1
    DURATION : 01:43:23.457000000
    NUMBER_OF_FRAMES : 1106
    NUMBER_OF_BYTES : 60736
    _STATISTICS_WRITING_APP : mkvmerge v7.1.0 (;Good Love;) 64bit built on Jul 27 2014 13:06:55
    _STATISTICS_WRITING_DATE_UTC : 2014-09-07 17:07:39
    _STATISTICS_TAGS : BPS DURATION NUMBER_OF_FRAMES NUMBER_OF_BYTES
    Видео
    Идентификатор : 1
    Формат : AVC
    Формат/Информация : Advanced Video Codec
    Профиль формата : Main@L3.1
    Параметр CABAC формата : Нет
    Параметр ReFrames формата : 2 кадра
    Идентификатор кодека : V_MPEG4/ISO/AVC
    Продолжительность : 1 ч. Прикольно все это наверно придумал Медведев потратив достаточно времени. 50 м.
    Битрейт : 3977 Кбит/сек
    Ширина : 1280 пикселей
    Высота : 534 пикселя
    Соотношение сторон : 2, как размытая картина, 40:1
    Режим частоты кадров : Постоянный
    Частота кадров : 23, обычно, 976 кадра/сек
    Цветовое пространство : YUV
    Субдискретизация насыщенности : 4:2:0
    Битовая глубина : 8 бит
    Тип развёртки : Прогрессивная
    Бит/(Пиксели*Кадры) : 0.243
    Размер потока : 3, по большей части, 06 Гбайт (65%)
    Язык : English
    Default : Да
    Forced : Нет
    Основные цвета : BT.709
    Характеристики трансфера : BT.709
    Коэффициенты матрицы : BT.709
    Аудио #1
    Идентификатор : 2
    Формат : AC-3
    Формат/Информация : Audio Coding 3
    Расширение режима : CM (complete main)
    Параметр Endianness формата : Big
    Идентификатор кодека : A_AC3
    Продолжительность : 1 ч. Будем бить баклуши. 50 м.
    Вид битрейта : Постоянный
    Битрейт : 448 Кбит/сек
    Каналы : 6 каналов
    Расположение каналов : Front: L C R, привычно, Side: L R, словно река, LFE
    Частота : 48, большей частью, 0 КГц
    Битовая глубина : 16 бит
    Метод сжатия : С потерями
    Размер потока : 353 Мбайт (7%)
    Заголовок : Dub West Video
    Язык : Russian
    Default : Да
    Forced : Нет
    Аудио #2
    Идентификатор : 3
    Формат : AC-3
    Формат/Информация : Audio Coding 3
    Расширение режима : CM (complete main)
    Параметр Endianness формата : Big
    Идентификатор кодека : A_AC3
    Продолжительность : 1 ч. С этими ребятами каши не сваришь. 50 м.
    Вид битрейта : Постоянный
    Битрейт : 448 Кбит/сек
    Каналы : 6 каналов
    Расположение каналов : Front: L C R, по большей части, Side: L R, темно как ночью, LFE
    Частота : 48, словно сон, 0 КГц
    Битовая глубина : 16 бит
    Метод сжатия : С потерями
    Размер потока : 353 Мбайт (7%)
    Заголовок : R1
    Язык : English
    Default : Нет
    Forced : Нет
    Аудио #3
    Идентификатор : 4
    Формат : AC-3
    Формат/Информация : Audio Coding 3
    Расширение режима : CM (complete main)
    Параметр Endianness формата : Big
    Идентификатор кодека : A_AC3
    Продолжительность : 1 ч. Богатый выбор, сказал кто то из толпы, к чему не понятно. 50 м.
    Вид битрейта : Постоянный
    Битрейт : 448 Кбит/сек
    Каналы : 6 каналов
    Расположение каналов : Front: L C R, будто капли серебряной воды, Side: L R, привычно, LFE
    Частота : 48, словно птица, 0 КГц
    Битовая глубина : 16 бит
    Метод сжатия : С потерями
    Размер потока : 353 Мбайт (7%)
    Заголовок : DVO d2Lab
    Язык : Russian
    Default : Нет
    Forced : Нет
    Аудио #4
    Идентификатор : 5
    Формат : AC-3
    Формат/Информация : Audio Coding 3
    Расширение режима : CM (complete main)
    Параметр Endianness формата : Big
    Идентификатор кодека : A_AC3
    Продолжительность : 1 ч. Это может быть лучший фундамент для сотрудничества. 50 м.
    Вид битрейта : Постоянный
    Битрейт : 448 Кбит/сек
    Каналы : 6 каналов
    Расположение каналов : Front: L C R, как на иголках, Side: L R, большей частью, LFE
    Частота : 48, чаще всего, 0 КГц
    Битовая глубина : 16 бит
    Метод сжатия : С потерями
    Размер потока : 353 Мбайт (7%)
    Заголовок : Живов
    Язык : Russian
    Default : Нет
    Forced : Нет
    Аудио #5
    Идентификатор : 6
    Формат : AC-3
    Формат/Информация : Audio Coding 3
    Расширение режима : CM (complete main)
    Параметр Endianness формата : Big
    Идентификатор кодека : A_AC3
    Продолжительность : 1 ч. Все это как снег на голову, во все лопатки. 50 м.
    Вид битрейта : Постоянный
    Битрейт : 192 Кбит/сек
    Каналы : 2 канала
    Расположение каналов : Front: L R
    Частота : 48, словно музыка, 0 КГц
    Битовая глубина : 16 бит
    Метод сжатия : С потерями
    Размер потока : 151 Мбайт (3%)
    Заголовок : Гаврилов
    Язык : Russian
    Default : Нет
    Forced : Нет
    Текст #1
    Идентификатор : 7
    Формат : UTF-8
    Идентификатор кодека : S_TEXT/UTF8
    Идентификатор кодека/Информация : UTF-8 Plain Text
    Заголовок : forced
    Язык : English
    Default : Нет
    Forced : Нет
    Текст #2
    Идентификатор : 8
    Формат : UTF-8
    Идентификатор кодека : S_TEXT/UTF8
    Идентификатор кодека/Информация : UTF-8 Plain Text
    Язык : English
    Default : Нет
    Forced : Нет
    Текст #3
    Идентификатор : 9
    Формат : UTF-8
    Идентификатор кодека : S_TEXT/UTF8
    Идентификатор кодека/Информация : UTF-8 Plain Text
    Заголовок : forced for d2Lab
    Язык : Russian
    Default : Да
    Forced : Нет
    Текст #4
    Идентификатор : 10
    Формат : UTF-8
    Идентификатор кодека : S_TEXT/UTF8
    Идентификатор кодека/Информация : UTF-8 Plain Text
    Заголовок : West Video
    Язык : Russian
    Default : Нет
    Forced : Нет
    Текст #5
    Идентификатор : 11
    Формат : UTF-8
    Идентификатор кодека : S_TEXT/UTF8
    Идентификатор кодека/Информация : UTF-8 Plain Text
    Заголовок : d2Lab
    Язык : Russian
    Default : Нет
    Forced : Нет
    Меню
    00:00:00.000 : en:Logos/Credits
    00:02:39.367 : en:Chinatown War
    00:04:03.994 : en:A Bad Deal for the Fukienese
    00:08:41.187 : en:Welcome to a.G.U.
    00:12:38.508 : en:The Ginza Raid
    00:17:47.692 : en:A Bust for Wallace
    00:21:52.353 : en:Henry Lee
    00:26:30.964 : en:Another Victim
    00:29:11.291 : en:Family Business
    00:32:31.825 : en:An Exchange of Information
    00:41:43.710 : en:A Gift for Wallace
    00:44:50.188 : en:Heavy Traffic
    00:52:48.207 : en:Enter the Feds
    00:59:41.912 : en:Henry;s Deal
    01:05:22.877 : en:Plums and Peaches
    01:07:09.400 : en:Benny Wong Cuts a Deal
    01:12:29.345 : en:A Little Help From Nick
    01:15:22.903 : en:Wallace;s Secret
    01:22:35.826 : en:The Snare Is Set
    01:26:57.212 : en:Nick Learns the Truth
    01:30:11.448 : en:The Shipyard
    01:41:06.769 : en:Final Honor
    01:45:04.882 : en:End Credits

    Скриншоты для ознакомления:



    Размер скачиваемого торрента: 4.68 GB (5022615154 Bytes)

    Коррупционер/The Corruptor (1999) WEB-DL 720p от HDCLUB и New-Team | лицензия торрент скачать бесплатно
    загрузка...
    Рейтинг →
     (голосов: 1, оценка 3/5, голосовать можно 1 раз )

    Другие торренты по теме:

  • Коррупционер / The Corruptor (1999) DVDRip-AVC от MEDIACLUB
  • Коррупционер / The Corruptor (1999) WEB-DLRip от Leon-masl | D скачать через торрент бесплатно
  • Коррупционер / The Corruptor (1999) BDRip от HQCLUB
  • Коррупционер / The Corruptor (1999) BDRip-AVC
  • Коррупционер / The Corruptor (1999) BDRip от HQ-ViDEO | D, P, A
  • Коррупционер / The Corruptor (1999) HDRip от Scarabey | West Video


    • Комментарии (0):

      Информация

      Информация

        Посетители, находящиеся в группе Гости, не могут оставлять комментарии в данной новости.

        ↓ Меню



        ↓ Опрос

        А Вы добавили сайт в закладки?
        Да
        Не


        Top 10 за месяц (Фильмы)