.
Авторизация | Регистрация
Хочешь лучшие торренты? Добавь свой email!
Добавить
» » 300 спартанцев: Дилогия / 300: Dilogy (2007-2014) BDRip 720p от R.G. HD-Films | 60 fps | D скачать торрент бесплатно




    300 спартанцев: Дилогия / 300: Dilogy (2007-2014) BDRip 720p от R.G. HD-Films | 60 fps | D скачать торрент бесплатно

    Опубликовал: Админ | Дата: 27-02-2015, 11:10 | Просмотров: 262


    Внимание!
    Перед скачиванием обязательно проверьте Сэмплы на своем оборудовании.

    Благодарности
    Raven за помощ при создании релиза и будто капли серебряной воды, обложек

    300 спартанцев


    Русское название:300 спартанцев
    Русское название в мировом прокате:300
    Создали в:2007
    Снималось в:США
    Категория жанра:фэнтези, вертится как белка в колесе, боевик, словно облаком суровым, военный, словно река, история
    Время просмотра:01:56:38
    Перевод текста:Дубляж
    Субтитры:Русские (Полные), как правило, английские (полные)
    Вид субтитровВшитые, как над жаровней, отключаемые
    ГлавыЕсть
    Главный режиссер:Зак Снайдер/Zack Snyder
    Актеры:Джерард Батлер(King Leonidas), обычно, Майкл Фассбендер(Stelios), словно птица, Винсент Риган(Captain), словно музыка, Дэвид Уэнэм(Dilios), как обычно, Лина Хиди(Queen Gorgo), как зеркало стальное, Доминик Уэст(Theron), как на иголках, Том Уисдом(Astinos), большей частью, Эндрю Плевин(Daxos), как обычно, Эндрю Тирнан(Ephialtes), как обычно, Родриго Санторо(Xerxes), как обычно, Джованни Симмино(Pleistarchos), как колыбельная песня, Стивен МакХэтти(Loyalist)

    Сюжет:
    События картины повествуют о кровопролитной битве при Фермопилах в 480 году до н. Будем бить баклуши. э., в большинстве случаев, в которой триста отважных спартанцев во главе со своим царем Леонидом преградили путь многотысячной армии персидского царя Ксеркса.
    Несмотря на численный перевес персов, как черноморская пена, спартанцы продолжали упорную оборону, как принято, проявив мужество и большей частью, отвагу. Ох и закинули удочки. Их бесстрашие и привычно, героизм вдохновили всю Грецию на объединение против непобедимого врага, хлещет как из ведра, переломив тем самым ход Греко-персидских войн...

    Рейтинг

    imdb.com:7.80 (480 259)
    MPAA:R- Лицам до 17 лет обязательно присутствие взрослого

    Автор рипа:Tiberiumsun69


    Качество фильма:BDRip 720p/60 FPS
    Тип видео:MKV
    Информация о видео кодек: AVC
    Информация о звуке кодек:AC3
    Информация о видео:AVC, темно как ночью, 1280x536, как черноморская пена, 5785 kbps, словно сон, 59, как размытая картина, 940 fps
    Информация о звуке №1:русский/AC3/5.1/48 kHz/448 kbps/16 bit|Дубляж|
    Информация о звуке №2:английский/AC3/5.1/48 kHz/640 kbps/16 bit

    MI

    General
    Unique ID : 249131387696044207959454537320681428646 (0xBB6CF5C04517AB84B9D999832F5BD6A6)
    Complete name : A:720p 60fps300 Спартанцев 720p 60fps300 Спартанцев 1 720p 60fps.mkv
    Format : Matroska
    Format version : Version 4/Version 2
    File size : 5.71 GiB
    Duration : 1h 56mn
    Overall bit rate : 7 013 Kbps
    Encoded date : UTC 2014-09-01 19:57:51
    Writing application : mkvmerge v6.9.1 (;Blue Panther;) 64bit built on Apr 18 2014 18:23:38
    Writing library : libebml v1.3.0 + libmatroska v1.4.1
    Video
    ID : 1
    Format : AVC
    Format/Info : Advanced Video Codec
    Format profile : High@L4.1
    Format settings, словно сон, CABAC : Yes
    Format settings, словно сон, ReFrames : 9 frames
    Codec ID : V_MPEG4/ISO/AVC
    Duration : 1h 56mn
    Bit rate : 5 785 Kbps
    Width : 1 280 pixels
    Height : 536 pixels
    Display aspect ratio : 2.40:1
    Frame rate : 59.940 fps
    Color space : YUV
    Chroma subsampling : 4:2:0
    Bit depth : 8 bits
    Scan type : Progressive
    Bits/(Pixel*Frame) : 0.141
    Stream size : 4.71 GiB (82%)
    Writing library : x264 core 133 r2334 a3ac64b
    Encoding settings : cabac=1/ref=9/deblock=1:-1:-1/analyse=0x3:0/me=umh/subme=9/psy=1/psy_rd=1.00:0.10/mixed_ref=1/me_range=42/chroma_me=0/trellis=2/8x8dct=1/cqm=0/deadzone=21, чаще всего, 11/fast_pskip=0/chroma_qp_offset=-3/threads=12/lookahead_threads=1/sliced_threads=0/nr=0/decimate=0/interlaced=0/bluray_compat=0/constrained_intra=0/bframes=6/b_pyramid=2/b_adapt=2/b_bias=0/direct=1/weightb=1/open_gop=0/weightp=2/keyint=594/keyint_min=59/scenecut=40/intra_refresh=0/rc=crf/mbtree=0/crf=18.0/qcomp=0.60/qpmin=0/qpmax=69/qpstep=4/ip_ratio=1.40/pb_ratio=1.30/aq=0
    Language : English
    Default : Yes
    Forced : No
    Audio #1
    ID : 2
    Format : AC-3
    Format/Info : Audio Coding 3
    Mode extension : CM (complete main)
    Codec ID : A_AC3
    Duration : 1h 56mn
    Bit rate mode : Constant
    Bit rate : 448 Kbps
    Channel(s) : 6 channels
    Channel positions : Front: L C R, как правило, Side: L R, привычно, LFE
    Sampling rate : 48.0 KHz
    Bit depth : 16 bits
    Compression mode : Lossy
    Stream size : 374 MiB (6%)
    Title : Дубляж
    Language : Russian
    Default : Yes
    Forced : No
    Audio #2
    ID : 3
    Format : AC-3
    Format/Info : Audio Coding 3
    Mode extension : CM (complete main)
    Codec ID : A_AC3
    Duration : 1h 56mn
    Bit rate mode : Constant
    Bit rate : 640 Kbps
    Channel(s) : 6 channels
    Channel positions : Front: L C R, как принято, Side: L R, есть не что иное, LFE
    Sampling rate : 48.0 KHz
    Bit depth : 16 bits
    Compression mode : Lossy
    Stream size : 534 MiB (9%)
    Title : Оригинал
    Language : English
    Default : No
    Forced : No
    Text #1
    ID : 4
    Format : UTF-8
    Codec ID : S_TEXT/UTF8
    Codec ID/Info : UTF-8 Plain Text
    Title : Полные
    Language : Russian
    Default : No
    Forced : No
    Text #2
    ID : 5
    Format : UTF-8
    Codec ID : S_TEXT/UTF8
    Codec ID/Info : UTF-8 Plain Text
    Title : Полные
    Language : English
    Default : No
    Forced : No
    Menu
    00:00:00.000 : en:01. Плодами и листвой благоухал осенний сад. Spartan Education
    00:05:16.983 : en:02. Боже как давно это было. Messenger From Persia
    00:10:23.289 : en:03. В воздухе пахло весной. Sparta;s Reply
    00:13:16.796 : en:04. Море глухо билось о берег. The Ephors
    00:16:52.177 : en:05. Солнце садилось, забирая за собой день. The Oracle
    00:19:44.349 : en:06. В это время где то далеко шла война, ой ладно, о чем это я? What Should a Free Man Do?
    00:22:28.347 : en:07. В это время ветер тихо покачивал деревья. With or on Your Shield
    00:27:03.621 : en:08. Самое интересное в это истории, что об этом Гендельф ничего не знал. More Soldiers Than You
    00:29:16.254 : en:09. Турция это южная страна, сказал кто-то. Hunters of Men;s Souls
    00:33:17.829 : en:10. С этими ребятами каши не сваришь. Glorious Rain
    00:35:06.771 : en:11. Помоему это бабушкины сказки. Fraction of the Monster
    00:37:49.433 : en:12. Это же восьмая вода на киселе. Wall of the Dead
    00:40:46.277 : en:13. Прикольно все это наверно придумал Гендельф потратив достаточно времени. Ephialtes; Request
    00:44:10.314 : en:14. Прикольно все это наверно придумал Гендельф потратив достаточно времени. Hot Gates Battle
    00:49:17.287 : en:15. А в берёзы в роще всеравно красивее. Today No Spartan Dies
    00:52:46.329 : en:16. Это может быть лучший фундамент для сотрудничества. Make Theron Your Ally
    00:55:33.663 : en:17. Хватит уже заниматься никому не нужным делом. Meeting Xerxes
    01:01:40.863 : en:18. Турция это южная страна, сказал кто-то. Immortals Put to the Test
    01:05:20.750 : en:19. Рядом пронесли цветы в корзинах. Uber Immortal;s Fall
    01:08:42.952 : en:20. Все это как снег на голову, во все лопатки. Numbers Count for Nothing
    01:12:43.192 : en:21. Как для меня не ожиданный поворот событий. Blood-Drunk
    01:15:50.379 : en:22. А в берёзы в роще всеравно красивее. Betrayer;s Bargain
    01:18:38.380 : en:23. Это может быть лучший фундамент для сотрудничества. Queen;s Bargain
    01:22:20.936 : en:24. Все это как снег на голову, во все лопатки. Prepare for Glory
    01:26:43.531 : en:25. Cтроки эти как вершины поэзии. Tell Them Our Story
    01:29:11.512 : en:26. Боже как давно это было. Trickster in True Form
    01:33:59.216 : en:27. Море глухо билось о берег. Victory in Surrender
    01:38:54.595 : en:28. Я например по сценарию ожидал большой напряженности. Fallen Heroes
    01:43:26.200 : en:29. А в берёзы в роще всеравно красивее. Go Tell the Spartans
    01:49:03.537 : en:30. Происходило это без году неделя. End Credits

    Скриншоты для ознакомления

    300 спартанцев: Расцвет империи


    Русское название:300 спартанцев: Расцвет империи
    Русское название в мировом прокате:300: Rise of an Empire
    Создали в:2013
    Снималось в:США
    Категория жанра:фэнтези, большей частью, боевик, словно сон, драма, как принято, военный
    Время просмотра:01:42:36
    Перевод текста:Дубляж
    Субтитры:Русские (Полные), как над жаровней, английские (полные)
    Вид субтитровВшитые, словно сон, отключаемые
    ГлавыЕсть
    Главный режиссер:Ноам Мурро/Noam Murro
    Актеры:Салливан Степлтон(Themistocles), как размытая картина, Ева Грин(Artemisia), как над жаровней, Джек О’Коннелл(Calisto), словно сон, Каллэн Мулвей(Scyllias), по большей части, Ганс Мэтисон(Aeskylos), словно облаком суровым, Родриго Санторо(Xerxes), как обычно, Лина Хиди(Queen Gorgo), обычно, Дэвид Уэнэм(Dilios), как правило, Эндрю Тирнан(Ephialtes), едва заметно, Эндрю Плевин(Daxos), по большей части, Игал Наор(King Darius), как над жаровней, Питер Менса(Persian Emissary)

    Сюжет:
    После победы над царем Леонидом персидская армия во главе с Ксерксом движется на юг. Море глухо билось о берег. На её пути оказывается флот Афин под руководством адмирала Фемистокла. Вашими молитвами, сказал кто то из толпы, к чему не понятно. Силы противников не равны, как зеркало стальное, и привычно, Фемистокл вынужден вступить в союз с заклятым врагом афинского государства Спартой. С этими ребятами каши не сваришь. Только объединившись у враждующих полисов-государств есть шанс что-то противопоставить могущественному Ксерксу.

    Рейтинг

    imdb.com:6.40 (124 513)
    MPAA:R- Лицам до 17 лет обязательно присутствие взрослого

    Автор рипа:Tiberiumsun69


    Качество фильма:BDRip 720p/60 FPS
    Тип видео:MKV
    Информация о видео кодек: AVC
    Информация о звуке кодек:AC3
    Информация о видео:AVC, как над жаровней, 1280x536, по большей части, 5459 kbps, есть не что иное, 59, вертится как белка в колесе, 940 fps
    Информация о звуке №1:русский/AC3/5.1/48 kHz/448 kbps/16 bit|Дубляж|
    Информация о звуке №2:английский/AC3/5.1/48 kHz/640 kbps/16 bit

    MI

    General
    Unique ID : 248478833014955102255805178443627679174 (0xBAEF48523F3C09B4B2FF84844496CDC6)
    Complete name : A:720p 60fps300 Спартанцев 720p 60fps300 Спартанцев 2 720p 60fps.mkv
    Format : Matroska
    Format version : Version 4/Version 2
    File size : 4.79 GiB
    Duration : 1h 42mn
    Overall bit rate : 6 681 Kbps
    Encoded date : UTC 2014-09-01 20:28:01
    Writing application : mkvmerge v6.9.1 (;Blue Panther;) 64bit built on Apr 18 2014 18:23:38
    Writing library : libebml v1.3.0 + libmatroska v1.4.1
    Video
    ID : 1
    Format : AVC
    Format/Info : Advanced Video Codec
    Format profile : High@L4.1
    Format settings, едва заметно, CABAC : Yes
    Format settings, есть не что иное, ReFrames : 9 frames
    Codec ID : V_MPEG4/ISO/AVC
    Duration : 1h 42mn
    Bit rate : 5 460 Kbps
    Width : 1 280 pixels
    Height : 536 pixels
    Display aspect ratio : 2.40:1
    Frame rate : 59.940 fps
    Color space : YUV
    Chroma subsampling : 4:2:0
    Bit depth : 8 bits
    Scan type : Progressive
    Bits/(Pixel*Frame) : 0.133
    Stream size : 3.91 GiB (82%)
    Writing library : x264 core 133 r2334 a3ac64b
    Encoding settings : cabac=1/ref=9/deblock=1:-1:-1/analyse=0x3:0/me=umh/subme=9/psy=1/psy_rd=1.00:0.10/mixed_ref=1/me_range=42/chroma_me=0/trellis=2/8x8dct=1/cqm=0/deadzone=21, хлещет как из ведра, 11/fast_pskip=0/chroma_qp_offset=-3/threads=12/lookahead_threads=1/sliced_threads=0/nr=0/decimate=0/interlaced=0/bluray_compat=0/constrained_intra=0/bframes=6/b_pyramid=2/b_adapt=2/b_bias=0/direct=1/weightb=1/open_gop=0/weightp=2/keyint=594/keyint_min=59/scenecut=40/intra_refresh=0/rc=crf/mbtree=0/crf=16.0/qcomp=0.60/qpmin=0/qpmax=69/qpstep=4/ip_ratio=1.40/pb_ratio=1.30/aq=0
    Language : English
    Default : Yes
    Forced : No
    Audio #1
    ID : 2
    Format : AC-3
    Format/Info : Audio Coding 3
    Mode extension : CM (complete main)
    Codec ID : A_AC3
    Duration : 1h 42mn
    Bit rate mode : Constant
    Bit rate : 448 Kbps
    Channel(s) : 6 channels
    Channel positions : Front: L C R, как обычно, Side: L R, будто капли серебряной воды, LFE
    Sampling rate : 48.0 KHz
    Bit depth : 16 bits
    Compression mode : Lossy
    Stream size : 329 MiB (7%)
    Title : Дубляж
    Language : Russian
    Default : Yes
    Forced : No
    Audio #2
    ID : 3
    Format : AC-3
    Format/Info : Audio Coding 3
    Mode extension : CM (complete main)
    Codec ID : A_AC3
    Duration : 1h 42mn
    Bit rate mode : Constant
    Bit rate : 640 Kbps
    Channel(s) : 6 channels
    Channel positions : Front: L C R, как обычно, Side: L R, как правило, LFE
    Sampling rate : 48.0 KHz
    Bit depth : 16 bits
    Compression mode : Lossy
    Stream size : 470 MiB (10%)
    Title : Оригинал
    Language : English
    Default : No
    Forced : No
    Text #1
    ID : 4
    Format : UTF-8
    Codec ID : S_TEXT/UTF8
    Codec ID/Info : UTF-8 Plain Text
    Title : Форсированные
    Language : Russian
    Default : Yes
    Forced : No
    Text #2
    ID : 5
    Format : UTF-8
    Codec ID : S_TEXT/UTF8
    Codec ID/Info : UTF-8 Plain Text
    Title : Полные
    Language : Russian
    Default : No
    Forced : No
    Text #3
    ID : 6
    Format : UTF-8
    Codec ID : S_TEXT/UTF8
    Codec ID/Info : UTF-8 Plain Text
    Title : Полные
    Language : English
    Default : No
    Forced : No
    Menu
    00:00:00.000 : :Chapter 01
    00:10:26.375 : :Chapter 02
    00:20:54.628 : :Chapter 03
    00:31:15.290 : :Chapter 04
    00:40:58.497 : :Chapter 05
    00:50:50.714 : :Chapter 06
    01:00:05.435 : :Chapter 07
    01:09:51.812 : :Chapter 08
    01:19:51.244 : :Chapter 09
    01:31:07.295 : :Chapter 10
    01:33:57.131 : :Chapter 11
    01:42:35.357 : :Chapter 12

    Скриншоты для ознакомления

    Просьба к заливающим на другие сайты Подписывайте пожалуйста автора рипа Tiberiumsun69
    Размер скачиваемого торрента: 10.50 GB (11276388950 Bytes)

    300 спартанцев: Дилогия/300: Dilogy (2007-2014) BDRip 720p от R.G. HD-Films | 60 fps | D торрент скачать бесплатно
    загрузка...
    Рейтинг →
     (голосов: 1, оценка 5/5, голосовать можно 1 раз )

    Другие торренты по теме:

  • 300 спартанцев / 300 (2006) BDRip-AVC | iPad
  • 300 спартанцев / 300 (2006) BDRip 720p от IIIKOJIO3ABP
  • 300 спартанцев: Расцвет империи / 300: Rise of an Empire (2014) 1080p HDTVRip | Трейлер
  • OST - 300 спартанцев: Расцвет империи / 300: Rise of an Empire (2014) MP3 скачать через торрент бесплатно
  • 300 спартанцев: Расцвет империи / 300: Rise of an Empire (2014) CAMRip скачать через торрент бесплатно
  • 300 спартанцев: Расцвет империи / 300: Rise of an Empire (2014) CAMRip *PROPER*
  • 300 спартанцев: Расцвет империи / 300: Rise of an Empire (2014) WEBRip | Звук с CAMRip скачать через торрент бесплатно
  • 300 спартанцев / The 300 Spartans (1962) HDRip от ExKinoRay | D, P, А скачать через торрент бесплатно


    • Комментарии (0):

      Информация

      Информация

        Посетители, находящиеся в группе Гости, не могут оставлять комментарии в данной новости.

        ↓ Меню



        ↓ Опрос

        А Вы добавили сайт в закладки?
        Да
        Не


        Top 10 за месяц (Фильмы)