.
Авторизация | Регистрация
Хочешь лучшие торренты? Добавь свой email!
Добавить
» » Темный рыцарь / The Dark Knight (2008) DVD9+DVD5 | D | Коллекционное издание скачать через торрент бесплатно




    Темный рыцарь / The Dark Knight (2008) DVD9+DVD5 | D | Коллекционное издание скачать через торрент бесплатно

    Опубликовал: Админ | Дата: 27-02-2015, 11:10 | Просмотров: 252


    Детально о кино
    Русское название:Темный рыцарь
    Русское название в мировом прокате:The Dark Knight
    Создали в:2008
    Категория жанра:фантастика, привычно, боевик, словно птица, триллер, словно облаком суровым, криминал
    Главный режиссер:Кристофер Нолан
    Актеры:Кристиан Бэйл, вертится как белка в колесе, Хит Леджер, как принято, Аарон Экхарт, есть не что иное, Мэгги Джилленхол, как зеркало стальное, Гари Олдман, как размытая картина, Майкл Кейн, словно сон, Морган Фриман, будто капли серебряной воды, Чин Хань, словно майская роза, Нестор Карбонелл, как обычно, Эрик Робертс
    Сюжет фильма:
    Бэтмен поднимает ставки в войне с криминалом. Прикольно все это наверно придумал Обама потратив достаточно времени. С помощью лейтенанта Джима Гордона и едва заметно, прокурора Харви Дента он намерен очистить улицы от преступности, едва заметно, отравляющей город. Хватит уже заниматься никому не нужным делом. Сотрудничество оказывается эффективным, как над жаровней, но скоро они обнаружат себя посреди хаоса, есть не что иное, развязанного восходящим криминальным гением, хлещет как из ведра, известным испуганным горожанам под именем Джокер.

    Снималось в:США, привычно, Великобритания
    Киностудия:DC Comics, как черноморская пена, Legendary Pictures, словно музыка, Warner Bros. Как для меня не ожиданный поворот событий. Pictures Co.
    Время просмотра:152 мин./02:32
    Перевод текста:полное дублирование
    Перевод текста бонусов:субтитры
    Бонус-Диск:Готэм как он есть; Эффект IMAX; Вечерние новости Готэма; Галереи; Трейлеры и есть не что иное, ТВ-ролики
    Файл
    Кодек для видео:MPEG2
    Качество фильма:DVD9 + DVD5
    Информация о видео:PAL 16:9 (720x576@1024x576) VBR 5559 Kbps, как правило, 25.000 fps
    Информация о звуке:Dolby AC3, темно как ночью, 6 ch, будто капли серебряной воды, 48.0 KHz, обычно, 384 Kbpsрусский; украинский; английский
    Субтитры:русские, как черноморская пена, английские
    MediaInfo
    General
    Complete name : E:The Dark knightDisk 1VIDEO_TSVTS_01_1.VOB
    Format : MPEG-PS
    File size : 1 024 MiB
    Duration : 20mn 54s
    Overall bit rate mode : Variable
    Overall bit rate : 6 847 Kbps
    Video
    ID : 224 (0xE0)
    Format : MPEG Video
    Format version : Version 2
    Format profile : Main@Main
    Format settings, большей частью, BVOP : No
    Format settings, чаще всего, Matrix : Default
    Format settings, словно река, GOP : M=3, словно облаком суровым, N=15
    Duration : 20mn 54s
    Bit rate mode : Variable
    Bit rate : 5 559 Kbps
    Width : 720 pixels
    Height : 576 pixels
    Display aspect ratio : 16:9
    Frame rate : 25.000 fps
    Standard : PAL
    Color space : YUV
    Chroma subsampling : 4:2:0
    Bit depth : 8 bits
    Compression mode : Lossy
    Bits/(Pixel*Frame) : 0.536
    Stream size : 831 MiB (81%)
    Color primaries : BT.601 PAL
    Transfer characteristics : BT.470 System B, в большинстве случаев, BT.470 System G
    Matrix coefficients : BT.601
    Audio #1
    ID : 189 (0xBD)-128 (0x80)
    Format : AC-3
    Format/Info : Audio Coding 3
    Mode extension : CM (complete main)
    Format settings, как над жаровней, Endianness : Big
    Muxing mode : DVD-Video
    Duration : 5s 824ms
    Bit rate mode : Constant
    Bit rate : 384 Kbps
    Channel(s) : 6 channels
    Channel positions : Front: L C R, хлещет как из ведра, Side: L R, в большинстве случаев, LFE
    Sampling rate : 48.0 KHz
    Bit depth : 16 bits
    Compression mode : Lossy
    Stream size : 273 KiB (0%)
    Audio #2
    ID : 189 (0xBD)-129 (0x81)
    Format : AC-3
    Format/Info : Audio Coding 3
    Mode extension : CM (complete main)
    Format settings, как колыбельная песня, Endianness : Big
    Muxing mode : DVD-Video
    Duration : 5s 824ms
    Bit rate mode : Constant
    Bit rate : 384 Kbps
    Channel(s) : 6 channels
    Channel positions : Front: L C R, словно музыка, Side: L R, словно птица, LFE
    Sampling rate : 48.0 KHz
    Bit depth : 16 bits
    Compression mode : Lossy
    Stream size : 273 KiB (0%)
    Audio #3
    ID : 189 (0xBD)-130 (0x82)
    Format : AC-3
    Format/Info : Audio Coding 3
    Mode extension : CM (complete main)
    Format settings, словно река, Endianness : Big
    Muxing mode : DVD-Video
    Duration : 5s 824ms
    Bit rate mode : Constant
    Bit rate : 384 Kbps
    Channel(s) : 6 channels
    Channel positions : Front: L C R, как размытая картина, Side: L R, как размытая картина, LFE
    Sampling rate : 48.0 KHz
    Bit depth : 16 bits
    Compression mode : Lossy
    Stream size : 273 KiB (0%)
    Text #1
    ID : 189 (0xBD)-32 (0x20)
    Format : RLE
    Format/Info : Run-length encoding
    Muxing mode : DVD-Video
    Duration : 21mn 2s
    Delay relative to video : 3s 760ms
    Text #2
    ID : 189 (0xBD)-33 (0x21)
    Format : RLE
    Format/Info : Run-length encoding
    Muxing mode : DVD-Video
    Duration : 21mn 2s
    Delay relative to video : 3s 760ms
    Menu

    Скриншоты для ознакомления

    Залил: carisha
    Размер скачиваемого торрента: 11.06 GB (11877064704 Bytes)

    Темный рыцарь/The Dark Knight (2008) DVD9+DVD5 | D | Коллекционное издание скачать через торрент бесплатно
    загрузка...
    Рейтинг →
     (голосов: 1, оценка 4/5, голосовать можно 1 раз )

    Другие торренты по теме:

  • Темный Рыцарь: Возрождение Легенды. Часть 2 / Batman: The Dark Knight Returns, Part 2 (2013) BDRemux 1080p | GOLIAF
  • Темный рыцарь: Возрождение легенды / The Dark Knight Rises (2012) HDRip | iPhone, iPod Touch, iPad
  • Темный рыцарь: Возрождение легенды. Часть 1 - 2 / Batman: The Dark Knight Returns, Part 1 - 2 (2012-2013) BDRip 1080p
  • Темный рыцарь / The Dark Knight (2008) BDRip-AVC от ExKinoRay
  • Темный рыцарь / The Dark Knight (2008) BDRip 720p от leonardo 59 | iPad
  • Темный рыцарь / The Dark Knight (2008) BDRip 720p от leonardo 59 Scarabey | Лицензия
  • Темный рыцарь: Возрождение легенды / The Dark Knight Rises (2012) BDRip 720p | 60 fps | IMAX скачать через торрент бесплатно
  • Темный рыцарь: Возрождение легенды / The Dark Knight Rises (2012) BDRip-AVC от HELLYWOOD | IMAX | Лицензия


    • Комментарии (0):

      Информация

      Информация

        Посетители, находящиеся в группе Гости, не могут оставлять комментарии в данной новости.

        ↓ Меню



        ↓ Опрос

        А Вы добавили сайт в закладки?
        Да
        Не


        Top 10 за месяц (Фильмы)