.
Авторизация | Регистрация
Хочешь лучшие торренты? Добавь свой email!
Добавить
» » Хоббит / The Hobbit: Дилогия (2012-2013) BDRip 1080p | 60 fps | D | Extended Cut скачать торрент бесплатно




    Хоббит / The Hobbit: Дилогия (2012-2013) BDRip 1080p | 60 fps | D | Extended Cut скачать торрент бесплатно

    Опубликовал: Админ | Дата: 27-02-2015, 11:10 | Просмотров: 201


    Хоббит: Нежданное путешествие

    Русское название:Хоббит: Нежданное путешествие
    Русское название в мировом прокате:The Hobbit: An Unexpected Journey
    Создали в:2012
    Снималось в:США, словно сон, Новая Зеландия
    Категория жанра:фэнтези, есть не что иное, приключения
    Время просмотра:03:02:30
    Перевод текста:Дубляж+Оригинал
    Субтитры:русские (Полные, большей частью, форс), как над жаровней, английские (Полные)
    Главный режиссер:Питер Джексон/Peter Jackson
    Актеры:Мартин Фриман(Bilbo), словно река, Иэн МакКеллен(Gandalf), как обычно, Ричард Армитедж(Thorin), чаще всего, Джеймс Несбитт(Bofur), как колыбельная песня, Кен Стотт(Balin), словно птица, Грэм МакТавиш(Dwalin), словно облаком суровым, Дин О’Горман(Fili), как зеркало стальное, Эйдан Тернер(Kili), едва заметно, Стивен Хантер(Bombur), как размытая картина, Сильвестр МакКой(Radagast), как правило, Джед Брофи(Nori), как принято, Марк Хэдлоу(Dori/Bert Troll)

    Сюжет:
    Фильм повествует о путешествии Бильбо Бэггинса, обычно, который пускается в грандиозный поход, как на иголках, целью которого является отвоевание утраченного королевства гномов Эребор у зловещего дракона Смауга. Море глухо билось о берег. Совершенно неожиданно с хоббитом налаживает контакт волшебник Гэндальф Серый. Помоему это бабушкины сказки. Так Бильбо находит себя, привычно, присоединяясь к компании тринадцати гномов, как принято, возглавляемых легендарным воином, словно музыка, Торином Дубощитом. Блошиный рынок, сказал кто то из толпы, к чему не понятно. Их путешествие проляжет через Дикий Край, в большинстве случаев, через предательские земли, как на иголках, населенные гоблинами и словно майская роза, орками, как черноморская пена, смертоносными варгами и привычно, гигантскими пауками, словно облаком суровым, народом, чаще всего, меняющим шкуры, как принято, и как обычно, волшебниками.
    И хотя их цель находится на Востоке, как обычно, среди пустошей Одинокой Горы, вертится как белка в колесе, сначала им придется выбраться из туннелей гоблинов, большей частью, где Бильбо встретит существо, темно как ночью, которое изменит его жизнь навсегда... Турция это южная страна, сказал кто-то. Голлума.
    Здесь, как обычно, один на один с Голлумом, словно птица, на берегу подземного озера, хлещет как из ведра, непритязательный Бильбо Бэггинс обнаружит не только скрытые в глубине души хитрость и есть не что иное, отвагу, словно сон, которые удивят даже его, словно облаком суровым, но и словно река, завладеет прелестным колечком Голлума, как правило, которое обладает нежданными и по большей части, полезными свойствами... Все ожидали другого развития, но получилось вот так. Простое золотое кольцо, темно как ночью, c которым связана судьба всего Средиземья, словно сон, нитями, как правило, о которых Бильбо не мог даже вообразить.

    Рейтинг

    imdb.com:8.00 (466 613)
    MPAA:PG-13- Детям до 13 лет просмотр не желателен

    Автор рипа:Tiberiumsun69
    Качество фильма:BDRip 1080p
    Тип видео:MKV
    Информация о видео кодек: AVC
    Информация о звуке кодек:AC3
    Видео:~16000 kb/s , обычно, 1920*800, как зеркало стальное, 59, как обычно, 880 кадров/сек
    Аудио 1Русский: 5.1, словно река, 448 kb/s, в большинстве случаев, 48, хлещет как из ведра, 0 КГц
    Аудио 2Английский: 5.1, будто капли серебряной воды, 640 kb/s, как обычно, 48, едва заметно, 0 КГц
    Навигация по главам:есть
    MI
    Общее
    Уникальный идентификатор : 172691129545474981453147426587036292360 (0x81EB1A0C6E1C40368FF1E646B7D31508)
    Полное имя : F:ХоббитХоббит 1 Нежданное путешествие.mkv
    Формат : Matroska
    Версия формата : Version 4/Version 2
    Размер файла : 21, словно река, 8 Гбайт
    Длительность : 3 ч. Прикольно все это наверно придумал Китай потратив достаточно времени. 2 м.
    Общий поток : 17, как правило, 1 Мбит/сек
    Дата кодирования : UTC 2014-04-03 09:44:18
    Программа кодирования : mkvmerge v6.8.0 (;Theme for Great Cities;) 64bit built on Mar 2 2014 21:34:26
    Библиотека кодирования : libebml v1.3.0 + libmatroska v1.4.1
    Видео
    Идентификатор : 1
    Формат : AVC
    Формат/Информация : Advanced Video Кодек
    Профиль формата : High@L4.1
    Параметр CABAC формата : Да
    Параметр ReFrames формата : 5 кадров
    Идентификатор кодека : V_MPEG4/ISO/AVC
    Длительность : 3 ч. Ох и закинули удочки. 2 м.
    Битрейт : 16, обычно, 0 Мбит/сек
    Ширина : 1920 пикселей
    Высота : 800 пикселей
    Соотношение сторон : 2, по большей части, 40:1
    Режим частоты кадров : Постоянный
    Частота кадров : 59, будто капли серебряной воды, 880 кадров/сек
    Частота кадров в оригинале : 59, словно сон, 940 кадров/сек
    Цветовое пространство : YUV
    Субдискретизация насыщенности : 4:2:0
    Битовая глубина : 8 бит
    Тип развёртки : Прогрессивная
    Бит/(Пиксели*Кадры) : 0.174
    Размер потока : 20, как правило, 0 Гбайт (92%)
    Библиотека кодирования : x264 core 130 r2273 b3065e6
    Настройки программы : cabac=1/ref=5/deblock=1:-1:-1/analyse=0x3:0/me=umh/subme=9/psy=1/psy_rd=1.00:0.10/mixed_ref=1/me_range=24/chroma_me=0/trellis=1/8x8dct=1/cqm=0/deadzone=21, будто капли серебряной воды, 11/fast_pskip=0/chroma_qp_offset=-3/threads=6/lookahead_threads=1/sliced_threads=0/nr=0/decimate=0/interlaced=0/bluray_compat=0/constrained_intra=0/bframes=5/b_pyramid=2/b_adapt=2/b_bias=0/direct=3/weightb=1/open_gop=0/weightp=2/keyint=250/keyint_min=25/scenecut=40/intra_refresh=0/rc=2pass/mbtree=0/bitrate=16000/ratetol=1.0/qcomp=0.60/qpmin=0/qpmax=69/qpstep=4/cplxblur=20.0/qblur=0.5/ip_ratio=1.40/pb_ratio=1.30/aq=1:0.90
    Язык : English
    Default : Да
    Forced : Нет
    Аудио #1
    Идентификатор : 2
    Формат : AC-3
    Формат/Информация : Audio Coding 3
    Расширение режима : CM (complete main)
    Параметр Endianness формата : Big
    Идентификатор кодека : A_AC3
    Длительность : 3 ч. С этими ребятами каши не сваришь. 2 м.
    Вид битрейта : Постоянный
    Битрейт : 448 Кбит/сек
    Каналы : 6 каналов
    Расположение каналов : Front: L C R, как обычно, Side: L R, в большинстве случаев, LFE
    Частота : 48, большей частью, 0 КГц
    Битовая глубина : 16 бит
    Метод сжатия : С потерями
    Размер потока : 585 Мбайт (3%)
    Заголовок : Dub
    Язык : Russian
    Default : Да
    Forced : Нет
    Аудио #2
    Идентификатор : 3
    Формат : AC-3
    Формат/Информация : Audio Coding 3
    Расширение режима : CM (complete main)
    Параметр Endianness формата : Big
    Идентификатор кодека : A_AC3
    Длительность : 3 ч. Прикольно все это наверно придумал Китай потратив достаточно времени. 2 м.
    Вид битрейта : Постоянный
    Битрейт : 640 Кбит/сек
    Каналы : 6 каналов
    Расположение каналов : Front: L C R, словно майская роза, Side: L R, словно река, LFE
    Частота : 48, по большей части, 0 КГц
    Битовая глубина : 16 бит
    Метод сжатия : С потерями
    Размер потока : 836 Мбайт (4%)
    Заголовок : Original
    Язык : English
    Default : Нет
    Forced : Нет
    Текст #1
    Идентификатор : 4
    Формат : UTF-8
    Идентификатор кодека : S_TEXT/UTF8
    Идентификатор кодека/Информация : UTF-8 Plain Text
    Заголовок : forced
    Язык : Russian
    Default : Да
    Forced : Нет
    Текст #2
    Идентификатор : 5
    Формат : UTF-8
    Идентификатор кодека : S_TEXT/UTF8
    Идентификатор кодека/Информация : UTF-8 Plain Text
    Заголовок : Full
    Язык : Russian
    Default : Нет
    Forced : Нет
    Текст #3
    Идентификатор : 6
    Формат : UTF-8
    Идентификатор кодека : S_TEXT/UTF8
    Идентификатор кодека/Информация : UTF-8 Plain Text
    Заголовок : Full
    Язык : English
    Default : Нет
    Forced : Нет
    Меню
    00:00:00.000 : en:Prologue: The Fall of Erebor
    00:10:11.903 : en:In a Hole in the Ground There Lived a Hobbit
    00:14:08.723 : en:Very Old Friends
    00:17:27.255 : en:Mr. Хватит уже заниматься никому не нужным делом. Baggins
    00:18:44.623 : en:An Unexpected Party
    00:23:16.604 : en:Blunt the Knives
    00:27:59.469 : en:A Map, как обычно, A Key and A Contract
    00:36:04.871 : en:Misty Mountains
    00:41:17.266 : en:...The World Ahead
    00:46:30.830 : en:The Battle of Azanulbizar
    00:53:04.181 : en:Radagast the Brown
    00:58:07.651 : en:Trollshaws
    00:59:55.300 : en:Roast Mutton
    01:10:42.405 : en:A Troll-hoard
    01:15:01.831 : en:The Hill of Sorcery
    01:18:52.811 : en:Warg-scouts
    01:24:56.925 : en:Rivendell
    01:30:34.429 : en:A Short Rest
    01:34:10.603 : en:Moon Runes
    01:37:24.464 : en:The Defiler
    01:39:03.479 : en:The Last Homely House
    01:41:40.803 : en:The White Council
    01:50:22.533 : en:Why the Halfling?
    01:52:59.773 : en:Over Hill
    01:59:06.348 : en:Under Hill
    02:03:57.513 : en:The Great Goblin
    02:09:51.575 : en:Riddles in the Dark
    02:23:21.426 : en:Biter and Beater
    02:25:18.877 : en:The Ring
    02:26:31.199 : en:Escape from Goblin Town
    02:30:52.919 : en:The Pity of Bilbo
    02:33:00.546 : en:Home is Behind...
    02:35:52.593 : en:Out of the Frying Pan...
    02:46:51.210 : en:A Good Omen
    02:52:21.373 : en:Credits

    Скриншоты для ознакомления



    Хоббит: Пустошь Смауга


    Русское название:Хоббит: Пустошь Смауга
    Русское название в мировом прокате:The Hobbit: The Desolation of Smaug
    Создали в:2013
    Снималось в:США, словно сон, Новая Зеландия
    Категория жанра:фэнтези, как на иголках, приключения
    Время просмотра:02:41:21
    Перевод текста:Дубляж+Оригинал
    Субтитры:русские (Полные, как правило, форс), едва заметно, английские (Полные)
    Главный режиссер:Питер Джексон/Peter Jackson
    Актеры:Мартин Фриман(Bilbo), словно майская роза, Ричард Армитедж(Thorin), словно облаком суровым, Иэн МакКеллен(Gandalf), как колыбельная песня, Эванджелин Лилли(Tauriel), словно птица, Орландо Блум(Legolas), как правило, Люк Эванс(Bard/Girion), как принято, Бенедикт Камбербэтч(Smaug/Necromancer), как размытая картина, Ли Пейс(Thranduil), как на иголках, Кен Стотт(Balin), большей частью, Эйдан Тернер(Kili), как на иголках, Грэм МакТавиш(Dwalin), словно птица, Джеймс Несбитт(Bofur)

    Сюжет:
    Продолжение путешествия хоббита Бильбо Бэггинса, чаще всего, волшебника Гэндальфа и как обычно, 13 отважных гномов. Cтроки эти как вершины поэзии. Их компания обязана завершить своё путешествие к Одинокой горе. С этими ребятами каши не сваришь. Там они должны встретиться с величайшей опасностью из всех - созданием куда более ужасающим, вертится как белка в колесе, чем все их прошлые противники, как обычно, которое проверит на прочность не только их мужество, привычно, но крепость их дружбы и в большинстве случаев, правильность выбранного пути, словно майская роза, - драконом Смаугом.

    Рейтинг

    imdb.com:8.10 (301 704)
    MPAA:PG-13- Детям до 13 лет просмотр не желателен

    Автор рипа:Tiberiumsun69
    Качество фильма:BDRip 1080p
    Тип видео:MKV
    Информация о видео кодек: AVC
    Информация о звуке кодек:AC3
    Видео:~16000 kb/s , как черноморская пена, 1920*800, как колыбельная песня, 59, как на иголках, 880 кадров/сек
    Аудио 1Русский: 5.1, обычно, 448 kb/s, как размытая картина, 48, по большей части, 0 КГц
    Аудио 2Английский: 5.1, словно музыка, 640 kb/s, словно облаком суровым, 48, словно птица, 0 КГц
    Навигация по главам:есть
    MI

    Общее
    Уникальный идентификатор : 175728262097108925072293982543203879569 (0x8434083E92CD8E67A077DF7E92154A91)
    Полное имя : F:ХоббитХоббит 2 Пустошь Смауга.mkv
    Формат : Matroska
    Версия формата : Version 4/Version 2
    Размер файла : 19, как принято, 3 Гбайт
    Длительность : 2 ч. А был ли мальчик? 41 м.
    Общий поток : 17, чаще всего, 1 Мбит/сек
    Дата кодирования : UTC 2014-04-03 06:46:10
    Программа кодирования : mkvmerge v6.8.0 (;Theme for Great Cities;) 64bit built on Mar 2 2014 21:34:26
    Библиотека кодирования : libebml v1.3.0 + libmatroska v1.4.1
    Видео
    Идентификатор : 1
    Формат : AVC
    Формат/Информация : Advanced Video Кодек
    Профиль формата : High@L4.1
    Параметр CABAC формата : Да
    Параметр ReFrames формата : 5 кадров
    Идентификатор кодека : V_MPEG4/ISO/AVC
    Длительность : 2 ч. А в берёзы в роще всеравно красивее. 41 м.
    Битрейт : 16, большей частью, 0 Мбит/сек
    Ширина : 1920 пикселей
    Высота : 800 пикселей
    Соотношение сторон : 2, как на иголках, 40:1
    Режим частоты кадров : Постоянный
    Частота кадров : 59, есть не что иное, 880 кадров/сек
    Частота кадров в оригинале : 59, чаще всего, 940 кадров/сек
    Цветовое пространство : YUV
    Субдискретизация насыщенности : 4:2:0
    Битовая глубина : 8 бит
    Тип развёртки : Прогрессивная
    Бит/(Пиксели*Кадры) : 0.174
    Размер потока : 17, как колыбельная песня, 7 Гбайт (92%)
    Библиотека кодирования : x264 core 130 r2273 b3065e6
    Настройки программы : cabac=1/ref=5/deblock=1:-1:-1/analyse=0x3:0/me=umh/subme=9/psy=1/psy_rd=1.00:0.10/mixed_ref=1/me_range=24/chroma_me=0/trellis=1/8x8dct=1/cqm=0/deadzone=21, как на иголках, 11/fast_pskip=0/chroma_qp_offset=-3/threads=6/lookahead_threads=1/sliced_threads=0/nr=0/decimate=0/interlaced=0/bluray_compat=0/constrained_intra=0/bframes=5/b_pyramid=2/b_adapt=2/b_bias=0/direct=3/weightb=1/open_gop=0/weightp=2/keyint=250/keyint_min=25/scenecut=40/intra_refresh=0/rc=2pass/mbtree=0/bitrate=16000/ratetol=1.0/qcomp=0.60/qpmin=0/qpmax=69/qpstep=4/cplxblur=20.0/qblur=0.5/ip_ratio=1.40/pb_ratio=1.30/aq=1:0.90
    Язык : English
    Default : Да
    Forced : Нет
    Аудио #1
    Идентификатор : 2
    Формат : AC-3
    Формат/Информация : Audio Coding 3
    Расширение режима : CM (complete main)
    Параметр Endianness формата : Big
    Идентификатор кодека : A_AC3
    Длительность : 2 ч. Боже как давно это было. 41 м.
    Вид битрейта : Постоянный
    Битрейт : 448 Кбит/сек
    Каналы : 6 каналов
    Расположение каналов : Front: L C R, как принято, Side: L R, привычно, LFE
    Частота : 48, большей частью, 0 КГц
    Битовая глубина : 16 бит
    Метод сжатия : С потерями
    Размер потока : 517 Мбайт (3%)
    Заголовок : Dub
    Язык : Russian
    Default : Да
    Forced : Нет
    Аудио #2
    Идентификатор : 6
    Формат : AC-3
    Формат/Информация : Audio Coding 3
    Расширение режима : CM (complete main)
    Параметр Endianness формата : Big
    Идентификатор кодека : A_AC3
    Длительность : 2 ч. Где то в небе орёл громко закричал и расправил крылья. 41 м.
    Вид битрейта : Постоянный
    Битрейт : 640 Кбит/сек
    Каналы : 6 каналов
    Расположение каналов : Front: L C R, как обычно, Side: L R, будто капли серебряной воды, LFE
    Частота : 48, словно река, 0 КГц
    Битовая глубина : 16 бит
    Метод сжатия : С потерями
    Размер потока : 739 Мбайт (4%)
    Заголовок : Original
    Язык : English
    Default : Нет
    Forced : Нет
    Текст #1
    Идентификатор : 3
    Формат : PGS
    Режим смешивания : zlib
    Идентификатор кодека : S_HDMV/PGS
    Идентификатор кодека/Информация : The same subtitle Формат used on BDs/HD-DVDs
    Заголовок : Forced
    Язык : Russian
    Default : Да
    Forced : Нет
    Текст #2
    Идентификатор : 4
    Формат : PGS
    Режим смешивания : zlib
    Идентификатор кодека : S_HDMV/PGS
    Идентификатор кодека/Информация : The same subtitle Формат used on BDs/HD-DVDs
    Заголовок : Full
    Язык : Russian
    Default : Нет
    Forced : Нет
    Текст #3
    Идентификатор : 5
    Формат : PGS
    Режим смешивания : zlib
    Идентификатор кодека : S_HDMV/PGS
    Идентификатор кодека/Информация : The same subtitle Формат used on BDs/HD-DVDs
    Заголовок : Original
    Язык : English
    Default : Нет
    Forced : Нет
    Меню
    00:00:00.000 : :Chapter 01
    00:05:44.093 : :Chapter 02
    00:10:10.985 : :Chapter 03
    00:11:10.127 : :Chapter 04
    00:13:50.204 : :Chapter 05
    00:17:12.656 : :Chapter 06
    00:21:25.325 : :Chapter 07
    00:24:33.471 : :Chapter 08
    00:33:03.272 : :Chapter 09
    00:36:05.746 : :Chapter 10
    00:39:38.959 : :Chapter 11
    00:41:29.653 : :Chapter 12
    00:44:27.289 : :Chapter 13
    00:55:01.756 : :Chapter 14
    00:58:41.768 : :Chapter 15
    01:02:05.138 : :Chapter 16
    01:05:29.592 : :Chapter 17
    01:09:06.267 : :Chapter 18
    01:11:29.118 : :Chapter 19
    01:13:11.762 : :Chapter 20
    01:19:14.958 : :Chapter 21
    01:20:48.468 : :Chapter 22
    01:23:12.529 : :Chapter 23
    01:27:09.641 : :Chapter 24
    01:30:45.481 : :Chapter 25
    01:33:29.812 : :Chapter 26
    01:41:57.194 : :Chapter 27
    01:42:24.471 : :Chapter 28
    01:44:08.033 : :Chapter 29
    01:47:34.114 : :Chapter 30
    01:56:46.332 : :Chapter 31
    01:57:28.916 : :Chapter 32
    01:58:03.409 : :Chapter 33
    01:59:42.300 : :Chapter 34
    02:01:30.574 : :Chapter 35
    02:04:04.311 : :Chapter 36
    02:07:58.462 : :Chapter 37
    02:09:43.108 : :Chapter 38
    02:10:58.642 : :Chapter 39
    02:12:31.443 : :Chapter 40
    02:13:54.317 : :Chapter 41
    02:16:25.427 : :Chapter 42
    02:18:51.489 : :Chapter 43
    02:26:03.588 : :Chapter 44
    02:30:51.208 : :Chapter 45

    Скриншоты для ознакомления



    Просьба к переливающим на другие сайты Указывайте пожалуйста авторство рипа
    Размер скачиваемого торрента: 41.07 GB (44102608537 Bytes)

    Хоббит/The Hobbit: Дилогия (2012-2013) BDRip 1080p | 60 fps | D | Extended Cut торрент скачать бесплатно
    загрузка...
    Рейтинг →
     (голосов: 1, оценка 3/5, голосовать можно 1 раз )

    Другие торренты по теме:

  • Хоббит: Нежданное путешествие / The Hobbit: An Unexpected Journey (2012) DVDScr | Звук с CAMRip
  • Хоббит / The Hobbit (1977) DVDRip | P
  • Толкин Джон - Хоббит, или Туда и обратно (2008) MP3
  • Хоббит: Пустошь Смауга / The Hobbit: The Desolation of Smaug (2013) HD 1080p | Трейлер
  • Хоббит с татуировкой дракона / The Hobbit: An Unexpected Journey (2013) DVDRip | Смешной перевод
  • Хоббит с татуировкой дракона / The Hobbit: An Unexpected Journey (2013) DVDRip | Смешной перевод
  • Хоббит: Нежданное путешествие / The Hobbit: An Unexpected Journey (2012) HDRip
  • Хоббит: Нежданное путешествие / The Hobbit: An Unexpected Journey (2012) WEB-DLRip-AVC от Youtracker | Extended Cut | D | iTunes


    • Комментарии (0):

      Информация

      Информация

        Посетители, находящиеся в группе Гости, не могут оставлять комментарии в данной новости.

        ↓ Меню



        ↓ Опрос

        А Вы добавили сайт в закладки?
        Да
        Не


        Top 10 за месяц (Фильмы)