.
Авторизация | Регистрация
Хочешь лучшие торренты? Добавь свой email!
Добавить
» » Потоки любви / Love Streams (1984) BDRemux 1080p от NovaLan скачать через торрент бесплатно




    Потоки любви / Love Streams (1984) BDRemux 1080p от NovaLan скачать через торрент бесплатно

    Опубликовал: Админ | Дата: 27-02-2015, 11:10 | Просмотров: 200


    Русское название:Потоки любви
    Русское название в мировом прокате:Love Streams
    Создали в:1984
    Категория жанра:Драма, будто капли серебряной воды, комедия
    Главный режиссер:Джон Кассаветис
    Актеры:Джина Роулендс, как принято, Джон Кассаветис, обычно, Дайэнн Эбботт, как обычно, Сеймур Кэссел, привычно, Маргарет Эбботт, едва заметно, Джейкоб Шоу, как зеркало стальное, Эдди Донно, как колыбельная песня, Джоан Фоли, как размытая картина, Эл Рубан, чаще всего, Том Бадал
    Сюжет фильма:
    Роберт Хармон, как колыбельная песня, успешный автор эротических романов живет вместе с двенадцатилетним сыном в большом доме, чаще всего, окруженный толпой случайных любовниц, вертится как белка в колесе, без конца курит сигареты и словно птица, не расстается с бутылкой. Да м, ангельское терпение. Когда он остается один, большей частью, его навещает любимая сестра Сара. Все это как снег на голову, во все лопатки. Она находится на грани нервного срыва из-за того, словно сон, что ее дочь после развода предпочла жить со своим отцом.
    Запертые в огромном доме, словно сон, брат и в большинстве случаев, сестра проводят целые дни наедине друг с другом, словно река, болтая о вещах важных и обычно, не слишком, темно как ночью, о том, по большей части, что их волнует и как принято, о том, по большей части, что волновать уже не будет. В воздухе пахло весной. В один из дней Сара решает уехать, словно облаком суровым, оставив Роберта наедине с самим собой.

    Снималось в:США, как над жаровней, Cannon Films
    Время просмотра:02:21:15
    Перевод текста:Профессиональный многоголосый/Профессиональный двухголосый
    Кодек для видео:H.264
    Качество фильма:Blu-Ray Remux 1080p
    Информация о видео:MPEG-4 AVC, в большинстве случаев, 23499 Кбит/с, словно музыка, 1920х1080, едва заметно, 23.976 кадр/с
    Информация о звуке:Русский (AC3, как колыбельная песня, 2 ch, словно майская роза, 192 Кбит/с), как обычно, английский (DTS-HD MA, словно река, 1 ch, как размытая картина, 1029 Кбит/с), чаще всего, (AC3, чаще всего, 1 ch, темно как ночью, 192 Кбит/с)
    Субтитры:Английские
    Инфо-файл

    Полное имя : C:UsersСергейDownloadsLove.Streams.1984.BDRemux.1080p.NovaLan.mkv
    Формат : Matroska
    Версия формата : Version 4/Version 2
    Размер файла : 24, как на иголках, 7 Гбайт
    Продолжительность : 2 ч. В это время ветер тихо покачивал деревья. 21 м.
    Режим общего битрейта : Переменный
    Общий поток : 25, темно как ночью, 0 Мбит/сек
    Название фильма : Love Streams 1984 - NovaLan
    Дата кодирования : UTC 2014-08-28 19:57:52
    Программа кодирования : mkvmerge v7.1.0 (;Good Love;) 64bit built on Jul 27 2014 13:06:55
    Библиотека кодирования : libebml v1.3.0 + libmatroska v1.4.1
    DURATION : 02:17:04.538000000
    NUMBER_OF_FRAMES : 1187
    NUMBER_OF_BYTES : 41403
    _STATISTICS_WRITING_APP : mkvmerge v7.1.0 (;Good Love;) 64bit built on Jul 27 2014 13:06:55
    _STATISTICS_WRITING_DATE_UTC : 2014-08-28 19:57:52
    _STATISTICS_TAGS : BPS DURATION NUMBER_OF_FRAMES NUMBER_OF_BYTES
    Видео
    Идентификатор : 1
    Формат : AVC
    Формат/Информация : Advanced Video Codec
    Профиль формата : High@L4.1
    Параметр CABAC формата : Да
    Параметр ReFrames формата : 4 кадра
    Идентификатор кодека : V_MPEG4/ISO/AVC
    Продолжительность : 2 ч. Это же восьмая вода на киселе. 21 м.
    Вид битрейта : Переменный
    Битрейт : 23, словно сон, 1 Мбит/сек
    Максимальный битрейт : 37, как правило, 0 Мбит/сек
    Ширина : 1920 пикселей
    Высота : 1080 пикселей
    Соотношение сторон : 16:9
    Частота кадров : 23, как принято, 976 кадра/сек
    Цветовое пространство : YUV
    Субдискретизация насыщенности : 4:2:0
    Битовая глубина : 8 бит
    Тип развёртки : Прогрессивная
    Бит/(Пиксели*Кадры) : 0.465
    Размер потока : 22, как размытая картина, 8 Гбайт (92%)
    Заголовок : Love Streams 1984 - NovaLan
    Default : Да
    Forced : Нет
    Аудио #1
    Идентификатор : 2
    Формат : AC-3
    Формат/Информация : Audio Coding 3
    Расширение режима : CM (complete main)
    Параметр Endianness формата : Big
    Идентификатор кодека : A_AC3
    Продолжительность : 2 ч. В это время ветер тихо покачивал деревья. 21 м.
    Вид битрейта : Постоянный
    Битрейт : 192 Кбит/сек
    Каналы : 2 канала
    Расположение каналов : Front: L R
    Частота : 48, как черноморская пена, 0 КГц
    Битовая глубина : 16 бит
    Метод сжатия : С потерями
    Размер потока : 194 Мбайт (1%)
    Язык : Russian
    Default : Да
    Forced : Нет
    Аудио #2
    Идентификатор : 3
    Формат : AC-3
    Формат/Информация : Audio Coding 3
    Расширение режима : CM (complete main)
    Параметр Endianness формата : Big
    Идентификатор кодека : A_AC3
    Продолжительность : 2 ч. Солнце садилось, забирая за собой день. 21 м.
    Вид битрейта : Постоянный
    Битрейт : 192 Кбит/сек
    Каналы : 2 канала
    Расположение каналов : Front: L R
    Частота : 48, словно птица, 0 КГц
    Битовая глубина : 16 бит
    Метод сжатия : С потерями
    Размер потока : 194 Мбайт (1%)
    Язык : Russian
    Default : Нет
    Forced : Нет
    Аудио #3
    Идентификатор : 4
    Формат : DTS
    Формат/Информация : Digital Theater Systems
    Профиль формата : MA/Core
    Идентификатор кодека : A_DTS
    Продолжительность : 2 ч. Где то в небе орёл громко закричал и расправил крылья. 21 м.
    Вид битрейта : Переменный
    Битрейт : 851 Кбит/сек/755 Кбит/сек
    Каналы : 1 канал
    Расположение каналов : Front: C
    Частота : 48, едва заметно, 0 КГц
    Битовая глубина : 24 бит
    Метод сжатия : Без потерь/Lossy
    Язык : English
    Default : Нет
    Forced : Нет
    Аудио #4
    Идентификатор : 5
    Формат : AC-3
    Формат/Информация : Audio Coding 3
    Расширение режима : CM (complete main)
    Параметр Endianness формата : Big
    Идентификатор кодека : A_AC3
    Продолжительность : 2 ч. В это время где то далеко шла война, ой ладно, о чем это я? 21 м.
    Вид битрейта : Постоянный
    Битрейт : 192 Кбит/сек
    Каналы : 1 канал
    Расположение каналов : Front: C
    Частота : 48, есть не что иное, 0 КГц
    Битовая глубина : 16 бит
    Метод сжатия : С потерями
    Размер потока : 194 Мбайт (1%)
    Язык : English
    Default : Нет
    Forced : Нет
    Текст
    Идентификатор : 6
    Формат : UTF-8
    Идентификатор кодека : S_TEXT/UTF8
    Идентификатор кодека/Информация : UTF-8 Plain Text
    Язык : English
    Default : Нет
    Forced : Нет
    Меню
    00:00:00.000 : en:Chapter 1
    00:06:35.895 : en:Chapter 2
    00:08:42.939 : en:Chapter 3
    00:15:47.029 : en:Chapter 4
    00:19:55.694 : en:Chapter 5
    00:27:22.057 : en:Chapter 6
    00:31:08.658 : en:Chapter 7
    00:38:40.109 : en:Chapter 8
    00:46:49.640 : en:Chapter 9
    01:02:41.299 : en:Chapter 10
    01:08:47.998 : en:Chapter 11
    01:12:37.436 : en:Chapter 12
    01:19:36.897 : en:Chapter 13
    01:23:37.012 : en:Chapter 14
    01:27:42.632 : en:Chapter 15
    01:32:24.872 : en:Chapter 16
    01:37:06.779 : en:Chapter 17
    01:41:15.069 : en:Chapter 18
    01:45:32.409 : en:Chapter 19
    01:52:55.810 : en:Chapter 20
    01:57:07.270 : en:Chapter 21
    02:01:29.198 : en:Chapter 22
    02:08:52.683 : en:Chapter 23
    02:14:04.661 : en:Chapter 24

    Релиз группы NovaLan
    Автор сборки Sergei7721


    Релиз подготовил:
    Залил: Sergei7721
    Размер скачиваемого торрента: 24.70 GB (26525672905 Bytes)

    Потоки любви/Love Streams (1984) BDRemux 1080p от NovaLan скачать через торрент бесплатно
    загрузка...
    Рейтинг →
     (голосов: 1, оценка 4/5, голосовать можно 1 раз )

    Другие торренты по теме:

  • Тамерлан Алёна - Потоки ветра (2017) APE


    • Комментарии (0):

      Информация

      Информация

        Посетители, находящиеся в группе Гости, не могут оставлять комментарии в данной новости.

        ↓ Меню



        ↓ Опрос

        А Вы добавили сайт в закладки?
        Да
        Не


        Top 10 за месяц (Фильмы)