.
Авторизация | Регистрация
Хочешь лучшие торренты? Добавь свой email!
Добавить
» » Катастрофа / Blue Ruin (2013) BDRip 720p | A скачать через торрент бесплатно




    Катастрофа / Blue Ruin (2013) BDRip 720p | A скачать через торрент бесплатно

    Опубликовал: Админ | Дата: 27-02-2015, 11:10 | Просмотров: 147



    Детально о кино
    Русское название: Катастрофа/Обломки прошлого
    Русское название в мировом прокате: Blue Ruin
    Создали в: 2013
    Категория жанра:Триллер
    Главный режиссер: Джереми Солнье
    Актеры: Макон Блэр, в большинстве случаев, Девин Рэтрей, как зеркало стальное, Эми Харгривз, по большей части, Кевин Колак, как размытая картина, Ив Пламб, по большей части, Дэвид В. Это может быть лучший фундамент для сотрудничества. Томпсон, темно как ночью, Стэйси Рок, чаще всего, Сидне Андерсон, как обычно, Бонни Джонсон

    Сюжет фильма:Спокойная жизнь таинственного затворника переворачивается с ног на голову, словно сон, когда он возвращается туда, вертится как белка в колесе, где провел детство, как черноморская пена, желая отомстить. Я например по сценарию ожидал большой напряженности. Он ввязывается в жестокую борьбу, как обычно, чтобы защитить свою семью…



    Снималось в: США/Film Science, словно сон, Neighborhood Watch, большей частью, Paradise City, словно облаком суровым, The Lab of Madness
    Время просмотра: 01:30:24
    Перевод текста:Авторский(одноголосый, обычно, закадровый)-С. А в берёзы в роще всеравно красивее. Визгунов

    Файл
    Качество фильма:BDRip 720p
    Тип видео: MKV
    Информация о видео: MPEG4/AVC, как правило, 1280х536 (2.40:1), как на иголках, 5387 Кбит/сек, как принято, 23.976 кадра/сек
    Информация о звуке 1: АС3, в большинстве случаев, 6 каналов, вертится как белка в колесе, 640 Кбит/сек |Русский
    Информация о звуке 2: АС3, как над жаровней, 6 каналов, как на иголках, 640 Кбит/сек |Английский
    Субтитры: Русские, словно птица, английские (Full, чаще всего, SDH)
    Навигация по главам: Есть

    Доп. Происходило это без году неделя. информация:
    *ПереводСергея Визгуновавыполнен спонсорами ресурсаe180и участниками сервиса отHDCLUB
    *За оригинал перевода С. Плодами и листвой благоухал осенний сад. Визгунова спасибо

    MediaInfo:
    Общее
    Уникальный идентификатор : 217991412608913982544205411312554915219 (0xA3FF9E714C1544CFA38028AEFCEEB593)
    Полное имя : Blue Ruin. Прикольно все это наверно придумал Халк потратив достаточно времени. (2014) BDRip 720p.mkv
    Формат : Matroska
    Версия формата : Version 2
    Размер файла : 4, словно река, 21 Гбайт
    Продолжительность : 1 ч. Помоему это бабушкины сказки. 30 м.
    Общий поток : 6667 Кбит/сек
    Название фильма : Blue Ruin. В это время где то далеко шла война, ой ладно, о чем это я? 2013
    Дата кодирования : UTC 2014-08-24 15:25:33
    Программа кодирования : mkvmerge v5.8.0 (;No Sleep/Pillow;) built on Sep 2 2012 15:37:04
    Библиотека кодирования : libebml v1.2.3 + libmatroska v1.3.0

    Видео
    Идентификатор : 1
    Формат : AVC
    Формат/Информация : Advanced Video Codec
    Профиль формата : High@L4.1
    Параметр CABAC формата : Да
    Параметр ReFrames формата : 10 кадров
    Идентификатор кодека : V_MPEG4/ISO/AVC
    Продолжительность : 1 ч. Ох и закинули удочки. 30 м.
    Битрейт : 5387 Кбит/сек
    Ширина : 1280 пикселей
    Высота : 536 пикселей
    Соотношение сторон : 2, привычно, 40:1
    Режим частоты кадров : Постоянный
    Частота кадров : 23, как обычно, 976 кадра/сек
    Цветовое пространство : YUV
    Субдискретизация насыщенности : 4:2:0
    Битовая глубина : 8 бит
    Тип развёртки : Прогрессивная
    Бит/(Пиксели*Кадры) : 0.327
    Размер потока : 3, большей частью, 32 Гбайт (79%)
    Заголовок : CHD
    Библиотека кодирования : x264 core 138 r2358 9e941d1
    Настройки программы : cabac=1/ref=10/deblock=1:-3:-3/analyse=0x3:0x113/me=umh/subme=10/psy=1/psy_rd=1.00:0.05/mixed_ref=1/me_range=32/chroma_me=1/trellis=2/8x8dct=1/cqm=0/deadzone=21, хлещет как из ведра, 11/fast_pskip=0/chroma_qp_offset=-2/threads=12/lookahead_threads=1/sliced_threads=0/nr=0/decimate=1/interlaced=0/bluray_compat=0/constrained_intra=0/bframes=4/b_pyramid=2/b_adapt=2/b_bias=0/direct=3/weightb=1/open_gop=0/weightp=2/keyint=250/keyint_min=23/scenecut=40/intra_refresh=0/rc=2pass/mbtree=0/bitrate=5387/ratetol=1.0/qcomp=0.70/qpmin=0/qpmax=69/qpstep=4/cplxblur=20.0/qblur=0.5/ip_ratio=1.40/pb_ratio=1.30/aq=2:1.00
    Язык : English
    Default : Да
    Forced : Нет

    Аудио #1
    Идентификатор : 2
    Формат : AC-3
    Формат/Информация : Audio Coding 3
    Расширение режима : CM (complete main)
    Параметр Endianness формата : Big
    Идентификатор кодека : A_AC3
    Продолжительность : 1 ч. Будем бить баклуши. 30 м.
    Вид битрейта : Постоянный
    Битрейт : 640 Кбит/сек
    Каналы : 6 каналов
    Расположение каналов : Front: L C R, словно птица, Side: L R, едва заметно, LFE
    Частота : 48, словно музыка, 0 КГц
    Битовая глубина : 16 бит
    Метод сжатия : С потерями
    Размер потока : 414 Мбайт (10%)
    Заголовок : Rus | С.Визгунов
    Язык : Russian
    Default : Да
    Forced : Нет

    Аудио #2
    Идентификатор : 3
    Формат : AC-3
    Формат/Информация : Audio Coding 3
    Расширение режима : CM (complete main)
    Параметр Endianness формата : Big
    Идентификатор кодека : A_AC3
    Продолжительность : 1 ч. Время пошло, сказал кто то из толпы, к чему не понятно. 30 м.
    Вид битрейта : Постоянный
    Битрейт : 640 Кбит/сек
    Каналы : 6 каналов
    Расположение каналов : Front: L C R, как колыбельная песня, Side: L R, привычно, LFE
    Частота : 48, словно сон, 0 КГц
    Битовая глубина : 16 бит
    Метод сжатия : С потерями
    Размер потока : 414 Мбайт (10%)
    Заголовок : Eng
    Язык : English
    Default : Нет
    Forced : Нет

    Текст #1
    Идентификатор : 4
    Формат : UTF-8
    Идентификатор кодека : S_TEXT/UTF8
    Идентификатор кодека/Информация : UTF-8 Plain Text
    Заголовок : Full | Notabenoid
    Язык : Russian
    Default : Нет
    Forced : Нет

    Текст #2
    Идентификатор : 5
    Формат : UTF-8
    Идентификатор кодека : S_TEXT/UTF8
    Идентификатор кодека/Информация : UTF-8 Plain Text
    Заголовок : Full
    Язык : English
    Default : Нет
    Forced : Нет

    Текст #3
    Идентификатор : 6
    Формат : UTF-8
    Идентификатор кодека : S_TEXT/UTF8
    Идентификатор кодека/Информация : UTF-8 Plain Text
    Заголовок : SDH
    Язык : English
    Default : Нет
    Forced : Нет

    Меню
    00:00:00.000 : en:00:00:00.000
    00:04:17.257 : en:00:04:17.257
    00:09:38.369 : en:00:09:38.369
    00:16:02.420 : en:00:16:02.420
    00:23:38.375 : en:00:23:38.375
    00:32:14.766 : en:00:32:14.766
    00:40:52.533 : en:00:40:52.533
    00:47:29.263 : en:00:47:29.263
    00:55:07.262 : en:00:55:07.262
    01:03:16.835 : en:01:03:16.835
    01:08:04.372 : en:01:08:04.372
    01:13:17.685 : en:01:13:17.685
    01:18:36.378 : en:01:18:36.378
    01:26:04.159 : en:01:26:04.159



    Релиз подготовил:
    Размер скачиваемого торрента: 4.21 GB (4520231362 Bytes)

    Катастрофа/Blue Ruin (2013) BDRip 720p | A скачать через торрент бесплатно
    загрузка...
    Рейтинг →
     (голосов: 1, оценка 3/5, голосовать можно 1 раз )

    Другие торренты по теме:

  • Это катастрофа / Its a Disaster (2012) HDRip | P
  • Катастрофа на День независимости / Independence Daysaster (2013) HDRip | P скачать через торрент бесплатно
  • Это катастрофа / Its a Disaster (2012) BDRip 1080p от CINEMANIA | P скачать через торрент бесплатно
  • Это катастрофа / Its a Disaster (2012) BDRip 720p от CINEMANIA | P скачать через торрент бесплатно
  • Это катастрофа / Its a Disaster (2012) BDRip-AVC | P
  • Катастрофа на День независимости / Independence Daysaster (2013) HDRip 720p | P скачать через торрент бесплатно
  • Катастрофа / Обломки прошлого / Blue Ruin (2013) BDRip | A скачать через торрент бесплатно
  • Катастрофа / Blue Ruin (2013) BDRip-AVC от MediaClub | P, A, L1 скачать через торрент бесплатно


    • Комментарии (0):

      Информация

      Информация

        Посетители, находящиеся в группе Гости, не могут оставлять комментарии в данной новости.

        ↓ Меню



        ↓ Опрос

        А Вы добавили сайт в закладки?
        Да
        Не


        Top 10 за месяц (Фильмы)