.
Авторизация | Регистрация
Хочешь лучшие торренты? Добавь свой email!
Добавить
» » Рэмбо: Первая кровь 2 / Rambo: First Blood Part II (1985) DVD9 | P скачать через торрент бесплатно




    Рэмбо: Первая кровь 2 / Rambo: First Blood Part II (1985) DVD9 | P скачать через торрент бесплатно

    Опубликовал: Админ | Дата: 27-02-2015, 11:10 | Просмотров: 218


    Детально о кино
    Русское название:Рэмбо: Первая кровь 2
    Русское название в мировом прокате:Rambo: First Blood Part II
    Создали в:1985
    Категория жанра:боевик
    Главный режиссер:Джордж П. Косматос
    Актеры:Сильвестр Сталлоне, Ричард Кренна, Чарльз Нэпьер, Стивен Беркофф, Джулия Никсон-Соул, Мартин Коув, Джордж Чунг, Энди Вуд, Уильям Хент, Войо Горич
    Сюжет фильма:
    Джон Рэмбо отбывает наказание в тюрьме строгого режима. Он смирился со своей участью, но несмотря на свое положение, он продолжает чтить основные заповеди военного братства: верить напарнику, прикрывать его спину, отдать свою жизнь за него и свою страну.
    Когда полковник Траутман, бывший боевой командир Рэмбо предлагает ему отправиться во Вьетнам, на спецоперацию по спасению оставшихся в плену американских солдат, он не раздумывая соглашается.

    Снималось в:США
    Киностудия:Anabasis N.V.
    Время просмотра:94 мин./01:34
    Перевод текста:профессиональный (многоголосый, закадровый)
    Файл
    Кодек для видео:MPEG2
    Качество фильма:DVD9
    Информация о видео:PAL 16:9 (720x576@1024x576) VBR 4815 Kbps, 25.000 fps
    Информация о звуке 1:Dolby AC3, 6 ch, 48.0 KHz, 384 Kbpsрусский, английский
    Информация о звуке 2:DTS 6 ch, 48.0 KHz, 1510 Kbpsрусский
    Субтитры:русские
    MediaInfo
    General
    Complete name : D:Rembo.Kvadrologija.DVD9.DVD5Rembo.2.1985.DVD-9VIDEO_TSVTS_04_1.VOB
    Format : MPEG-PS
    File size : 1 024 MiB
    Duration : 19mn 46s
    Overall bit rate : 7 237 Kbps
    Video
    ID : 224 (0xE0)
    Format : MPEG Video
    Format version : Version 2
    Format profile : Main@Main
    Format settings, BVOP : Yes
    Format settings, Matrix : Custom
    Format settings, GOP : Variable
    Duration : 19mn 46s
    Bit rate : 4 815 Kbps
    Maximum bit rate : 5 000 Kbps
    Width : 720 pixels
    Height : 576 pixels
    Display aspect ratio : 4:3
    Frame rate : 25.000 fps
    Standard : PAL
    Color space : YUV
    Chroma subsampling : 4:2:0
    Bit depth : 8 bits
    Scan type : Interlaced
    Scan order : Top Field First
    Compression mode : Lossy
    Bits/(Pixel*Frame) : 0.464
    Time code of first frame : 02:27:06:13
    Time code source : Group of pictures t_head
    Stream size : 681 MiB (67%)
    Audio #1
    ID : 189 (0xBD)-128 (0x80)
    Format : AC-3
    Format/Info : Audio Coding 3
    Mode extension : CM (complete main)
    Format settings, Endianness : Big
    Muxing mode : DVD-Video
    Duration : 19mn 46s
    Bit rate mode : Constant
    Bit rate : 384 Kbps
    Channel(s) : 6 channels
    Channel positions : Front: L C R, Side: L R, LFE
    Sampling rate : 48.0 KHz
    Bit depth : 16 bits
    Compression mode : Lossy
    Delay relative to video : -80ms
    Stream size : 54.3 MiB (5%)
    Audio #2
    ID : 189 (0xBD)-129 (0x81)
    Format : AC-3
    Format/Info : Audio Coding 3
    Mode extension : CM (complete main)
    Format settings, Endianness : Big
    Muxing mode : DVD-Video
    Duration : 19mn 46s
    Bit rate mode : Constant
    Bit rate : 384 Kbps
    Channel(s) : 6 channels
    Channel positions : Front: L C R, Side: L R, LFE
    Sampling rate : 48.0 KHz
    Bit depth : 16 bits
    Compression mode : Lossy
    Delay relative to video : -80ms
    Stream size : 54.3 MiB (5%)
    Audio #3
    ID : 189 (0xBD)-138 (0x8A)
    Format : DTS
    Format/Info : Digital Theater Systems
    Mode : 16
    Format settings, Endianness : Big
    Muxing mode : DVD-Video
    Duration : 19mn 46s
    Bit rate mode : Constant
    Bit rate : 1 510 Kbps
    Channel(s) : 6 channels
    Channel positions : Front: L C R, Side: L R, LFE
    Sampling rate : 48.0 KHz
    Bit depth : 24 bits
    Compression mode : Lossy
    Delay relative to video : -80ms
    Stream size : 214 MiB (21%)
    Menu

    Скриншоты для ознакомления

    Залил: carisha
    Размер скачиваемого торрента: 5.16 GB (5545388032 Bytes)

    Рэмбо: Первая кровь 2/Rambo: First Blood Part II (1985) DVD9 | P скачать через торрент бесплатно
    загрузка...
    Рейтинг →
     (голосов: 1, оценка 4/5, голосовать можно 1 раз )

    Другие торренты по теме:

  • Рэмбо: Первая кровь / First Blood (1982) HDRip от Youtracker | P | КПК
  • Рэмбо: Первая кровь 2 / Rambo: First Blood Part II (1985) HDRip от Youtracker | P | КПК
  • Рэмбо: Первая кровь / First Blood (1982) BDRip 1080p от BT-Club скачать через торрент бесплатно
  • Рэмбо: Первая кровь 2 / Rambo: First Blood Part II (1985) BDRip 1080p от BT-Club скачать через торрент бесплатно
  • Рэмбо: Первая кровь / First Blood (1982) BDRip от New-Team скачать через торрент бесплатно
  • Рэмбо: Первая кровь / First Blood (1982) BDRip-AVC от New-Team
  • Рэмбо: Первая кровь 2 / Rambo: First Blood Part II (1985) BDRip-AVC | iPad | P
  • Рэмбо: Первая кровь / First Blood (1982) BDRip-AVC | iPad | P


    • Комментарии (0):

      Информация

      Информация

        Посетители, находящиеся в группе Гости, не могут оставлять комментарии в данной новости.

        ↓ Меню



        ↓ Опрос

        А Вы добавили сайт в закладки?
        Да
        Не


        Top 10 за месяц (Фильмы)