.
Авторизация | Регистрация
Хочешь лучшие торренты? Добавь свой email!
Добавить
» » Приключения Раввина Якова / Les Aventures de Rabbi Jacob (1973) BDRip by msltel | D, P, P2, A скачать через торрент бесплатно




    Приключения Раввина Якова / Les Aventures de Rabbi Jacob (1973) BDRip by msltel | D, P, P2, A скачать через торрент бесплатно

    Опубликовал: Админ | Дата: 27-02-2015, 11:10 | Просмотров: 203


    Русское название:Приключения раввина Якова
    Русское название в мировом прокате:Les aventures de Rabbi Jacob
    Создали в:1973
    Категория жанра:Комедия, приключения
    Снималось в:Франция, Италия, Horse Film, Les Films Pomereu
    Главный режиссер:Жерар Ури
    Актеры:Луи де Фюнес, Клод Жиро, Сьюзи Делер, Марсель Далио, Ренцо Монтаньяни, Джанет Брандт, Андре Фалькон, Ксавье Желен, Анри Гибе, Попек, Миу-Миу, Дениз Прованс, Жак Франсуа, Клод Пьеплю, Жорж Аде, Пол Бисцилиа, Филипп Бриго, Жерар Дармон, Ноэль Дарзаль, Мишель Дюпле, Роберт Дюрантон, Малек Катеб, Мишель Фортен, Мишлин Кан, Эль Кебир, Пьер Кулак, Аликс Махье, Катрин Маршалл, Жерар Мелки, Жан-Жак Моро, Ив Пено, Андре Пенверн, Дениз Перонн, Кэри Рик, Роже Риффар, Мишель Робен, Лайонел Спилман, Джейкоб Толедано, Андре Валарди, Доминик Зарди
    Сюжет фильма:Пивер — законченный ортодокс и консерватор. Его не устраивает никакой цвет кожи, кроме белого. Также, по его мнению, ни одна страна не может даже и близко стоять к родной Франции. Так что, это человек величайшей гибкости и понимания. И именно его угораздило влипнуть в историю, где замешаны сразу и полиция, и террористы,… и евреи. По ходу действа наш протагонист окажется в самых уморительных ситуациях в столь же неожиданных декорациях, как, например, завод по производству жевательной резинки или еврейский квартал, откуда он неизменно найдет выход. Не зря же Луи признан великим французским комиком.
    Качество фильма:BDRip
    Размер скачиваемого торрента:2.41 ГБ
    Время просмотра:01:35:22
    Информация о видео:XviD, 1998 Кбит/с, 704x416
    Информация о звуке 1:русский, 48 kHz, AC3, 2 ch, 192 kbps avg, Дублированный, Киностудия им. Довженко
    Информация о звуке 2:русский, 48 kHz, AC3, 6 ch, 384 kbps avg, Профессиональный многоголосый
    Информация о звуке 3:русский, 48 kHz, AC3, 2 ch, 192 kbps avg, Авторский, Виктор Махонько
    Внешние файлы
    Информация о звуке:русский, 48 kHz, AC3, 2 ch, 192 kbps avg, Профессиональный многоголосый, ОРТ
    Информация о звуке:русский, 48 kHz, AC3, 2 ch, 192 kbps avg, Профессиональный двухголосый, Фильм-экспорт
    Информация о звуке:английский, 48 kHz, AC3, 6 ch, 448 kbps avg, Оригинал
    Субтитры:русские
    Субтитры:английские
    Исходник:Igorella87 (Кинозал)
    Сравнение с исходником

    Награды
    Золотой глобус, 1975 год
    Номинации (1):
    Лучший иностранный фильм — Франция
    MediaInfo
    Общее
    Полное имя : D:VideoPrikljuchenija ravvina Jakova.1973.BDRipPrikljuchenija ravvina Jakova.1973.BDRip.avi
    Формат : AVI
    Формат/Информация : Audio Video Interleave
    Размер файла : 1,86 Гбайт
    Продолжительность : 1 ч. 35 м.
    Общий поток : 2785 Кбит/сек
    Программа кодирования : VirtualDubMod 1.5.10.2 (build 2540/release)
    Библиотека кодирования : VirtualDubMod build 2540/release
    Видео
    Идентификатор : 0
    Формат : MPEG-4 Visual
    Профиль формата : Advanced Simple@L5
    Параметр BVOP формата : 1
    Параметр QPel формата : Нет
    Параметр GMC формата : Без точки перехода
    Параметр матрицы формата : Default (H.263)
    Режим смешивания : Сжатый битовый поток
    Идентификатор кодека : XVID
    Идентификатор кодека/Подсказка : XviD
    Продолжительность : 1 ч. 35 м.
    Битрейт : 1998 Кбит/сек
    Ширина : 704 пикселя
    Высота : 416 пикселей
    Соотношение сторон : 1,692
    Частота кадров : 23,976 кадра/сек
    Цветовое пространство : YUV
    Субдискретизация насыщенности : 4:2:0
    Битовая глубина : 8 бит
    Тип развёртки : Прогрессивная
    Метод сжатия : С потерями
    Бит/(Пиксели*Кадры) : 0.285
    Размер потока : 1,33 Гбайт (72%)
    Библиотека кодирования : XviD 1.2.1 (UTC 2008-12-04)
    Аудио #1
    Идентификатор : 1
    Формат : AC-3
    Формат/Информация : Audio Coding 3
    Расширение режима : CM (complete main)
    Параметр Endianness формата : Big
    Идентификатор кодека : 2000
    Продолжительность : 1 ч. 35 м.
    Вид битрейта : Постоянный
    Битрейт : 192 Кбит/сек
    Каналы : 2 канала
    Расположение каналов : Front: L R
    Частота : 48,0 КГц
    Битовая глубина : 16 бит
    Метод сжатия : С потерями
    Размер потока : 131 Мбайт (7%)
    Выравнивание : Разделение по промежуткам
    Продолжительность промежутка : 42 мс. (1,00 видеокадр)
    Время предзагрузки промежутка : 500 мс.
    Аудио #2
    Идентификатор : 2
    Формат : AC-3
    Формат/Информация : Audio Coding 3
    Расширение режима : CM (complete main)
    Параметр Endianness формата : Big
    Идентификатор кодека : 2000
    Продолжительность : 1 ч. 35 м.
    Вид битрейта : Постоянный
    Битрейт : 384 Кбит/сек
    Каналы : 6 каналов
    Расположение каналов : Front: L C R, Side: L R, LFE
    Частота : 48,0 КГц
    Битовая глубина : 16 бит
    Метод сжатия : С потерями
    Размер потока : 262 Мбайт (14%)
    Выравнивание : Разделение по промежуткам
    Продолжительность промежутка : 42 мс. (1,00 видеокадр)
    Время предзагрузки промежутка : 500 мс.
    Аудио #3
    Идентификатор : 3
    Формат : AC-3
    Формат/Информация : Audio Coding 3
    Расширение режима : CM (complete main)
    Параметр Endianness формата : Big
    Идентификатор кодека : 2000
    Продолжительность : 1 ч. 35 м.
    Вид битрейта : Постоянный
    Битрейт : 192 Кбит/сек
    Каналы : 2 канала
    Расположение каналов : Front: L R
    Частота : 48,0 КГц
    Битовая глубина : 16 бит
    Метод сжатия : С потерями
    Размер потока : 131 Мбайт (7%)
    Выравнивание : Разделение по промежуткам
    Продолжительность промежутка : 42 мс. (1,00 видеокадр)
    Время предзагрузки промежутка : 500 мс.
    Общее
    Полное имя : D:VideoPrikljuchenija ravvina Jakova.1973.BDRipPrikljuchenija ravvina Jakova.1973.DVO.rus.Фильм-экспорт.ac3
    Формат : AC-3
    Формат/Информация : Audio Coding 3
    Размер файла : 131 Мбайт
    Продолжительность : 1 ч. 35 м.
    Режим общего битрейта : Постоянный
    Общий поток : 192 Кбит/сек
    Аудио
    Формат : AC-3
    Формат/Информация : Audio Coding 3
    Расширение режима : CM (complete main)
    Параметр Endianness формата : Big
    Продолжительность : 1 ч. 35 м.
    Вид битрейта : Постоянный
    Битрейт : 192 Кбит/сек
    Каналы : 2 канала
    Расположение каналов : Front: L R
    Частота : 48,0 КГц
    Битовая глубина : 16 бит
    Метод сжатия : С потерями
    Размер потока : 131 Мбайт (100%)
    Общее
    Полное имя : D:VideoPrikljuchenija ravvina Jakova.1973.BDRipPrikljuchenija ravvina Jakova.1973.eng.srt
    Размер файла : 92,4 Кбайт
    Общее
    Полное имя : D:VideoPrikljuchenija ravvina Jakova.1973.BDRipPrikljuchenija ravvina Jakova.1973.MVO.rus.OPT.ac3
    Формат : AC-3
    Формат/Информация : Audio Coding 3
    Размер файла : 131 Мбайт
    Продолжительность : 1 ч. 35 м.
    Режим общего битрейта : Постоянный
    Общий поток : 192 Кбит/сек
    Аудио
    Формат : AC-3
    Формат/Информация : Audio Coding 3
    Расширение режима : CM (complete main)
    Параметр Endianness формата : Big
    Продолжительность : 1 ч. 35 м.
    Вид битрейта : Постоянный
    Битрейт : 192 Кбит/сек
    Каналы : 2 канала
    Расположение каналов : Front: L R
    Частота : 48,0 КГц
    Битовая глубина : 16 бит
    Метод сжатия : С потерями
    Размер потока : 131 Мбайт (100%)
    Общее
    Полное имя : D:VideoPrikljuchenija ravvina Jakova.1973.BDRipPrikljuchenija ravvina Jakova.1973.Original.fra.ac3
    Формат : AC-3
    Формат/Информация : Audio Coding 3
    Размер файла : 306 Мбайт
    Продолжительность : 1 ч. 35 м.
    Режим общего битрейта : Постоянный
    Общий поток : 448 Кбит/сек
    Аудио
    Формат : AC-3
    Формат/Информация : Audio Coding 3
    Расширение режима : CM (complete main)
    Параметр Endianness формата : Big
    Продолжительность : 1 ч. 35 м.
    Вид битрейта : Постоянный
    Битрейт : 448 Кбит/сек
    Каналы : 6 каналов
    Расположение каналов : Front: L C R, Side: L R, LFE
    Частота : 48,0 КГц
    Битовая глубина : 16 бит
    Метод сжатия : С потерями
    Размер потока : 306 Мбайт (100%)
    Общее
    Полное имя : D:VideoPrikljuchenija ravvina Jakova.1973.BDRipPrikljuchenija ravvina Jakova.1973.rus.srt
    Размер файла : 148 Кбайт
    Скриншоты для ознакомления


    Залил: msltel
    Размер скачиваемого торрента: 2.41 GB (2587246264 Bytes)

    Приключения Раввина Якова/Les Aventures de Rabbi Jacob (1973) BDRip by msltel | D, P, P2, A скачать через торрент бесплатно
    загрузка...
    Рейтинг →
     (голосов: 1, оценка 3/5, голосовать можно 1 раз )

    Другие торренты по теме:

  • Приключения раввина Якова / Les aventures de Rabbi Jacob (1973) BDRip 1080p
  • Приключения раввина Якова / Les aventures de Rabbi Jacob (1973) HDRip от Youtracker скачать через торрент бесплатно
  • Приключения раввина Якова / The Mad Adventures of Rabbi Jacob / Les aventures de Rabbi Jacob (1973) BDRip от HQCLUB
  • Приключения раввина Якова / Les aventures de Rabbi Jacob (1973) HDRip-AVC от New-Team
  • Приключения раввина Якова / The Adventures of Rabbi Jacob / Les aventures de Rabbi Jacob (1973) BDRip-AVC | iPad | D
  • Приключения раввина Якова / Les aventures de Rabbi Jacob
  • Приключения раввина Якова / Les aventures de Rabbi Jacob (The Adventures of Rabbi Jacob) / 1973 / ДБ, 2 х ПМ, ПД, СТ / DVD-9


    • Комментарии (0):

      Информация

      Информация

        Посетители, находящиеся в группе Гости, не могут оставлять комментарии в данной новости.

        ↓ Меню



        ↓ Опрос

        А Вы добавили сайт в закладки?
        Да
        Не


        Top 10 за месяц (Фильмы)