.
Авторизация | Регистрация
Хочешь лучшие торренты? Добавь свой email!
Добавить
» » Плохой Санта / Bad Santa (2003) BDRip-AVC | D, A | Unrated Cut скачать через торрент бесплатно




    Плохой Санта / Bad Santa (2003) BDRip-AVC | D, A | Unrated Cut скачать через торрент бесплатно

    Опубликовал: Админ | Дата: 27-02-2015, 11:10 | Просмотров: 180


    Плохой Санта/Bad Santa
    Снималось в: США
    Категория жанра: комедия
    Создали в: 2003
    Время просмотра: 01:39:16
    Перевод текста: Дублированный, авторский (одноголосый закадровый) Гоблин
    Субтитры подготовлены: русские, английские
    Оригинальная аудиодорожка: английский

    Главный режиссер: Терри Цвигофф/Terry Zwigoff

    Актеры: Билли Боб Торнтон, Тони Кокс, Бретт Келли, Лорен Грэм, Лоурен Том, Берни Мак, Джон Риттер, Аджай Найду, Клорис Личмен, Мэтт Уолш


    Два жулика разыгрывают представления и презентации в крупных магазинах, а затем их обворовывают. Один из них выступает под видом Санта Клауса (Деда Мороза по нашему). Очаровательная черная комедия от голливудских мастеров.



    Качество фильма:BDRip-AVC (BDRemux)
    Тип видео:MKV
    Информация о видео:1092x592 (1.84:1), 2232 kbps, 23.976 fps
    Информация о звуке №1:Russian, AC3, 6ch, 48 kHz, 384 kbps (Дубляж)
    Информация о звуке №2:Russian, AC3, 6ch, 48 kHz, 384 kbps (Одноголосый, Гоблин)
    Информация о звуке №3:English, AC3, 6ch, 48 kHz, 384 kbps (Оригинал)
    MediaInfo:
    Format : Matroska
    Format version : Version 2
    File size : 2.35 GiB
    Duration : 1h 39mn
    Overall bit rate : 3 386 Kbps
    Movie name : Bad Santa (2003) BDRip
    Encoded date : UTC 2012-01-13 13:00:49
    Writing application : mkvmerge v5.2.1 (;A Far Off Place;) built on Jan 2 2012 20:38:08
    Writing library : libebml v1.2.3 + libmatroska v1.3.0
    Attachment : Yes
    Video
    ID : 1
    Format : AVC
    Format/Info : Advanced Video Codec
    Format profile : High@L4.0
    Format settings, CABAC : Yes
    Format settings, ReFrames : 11 frames
    Codec ID : V_MPEG4/ISO/AVC
    Duration : 1h 39mn
    Bit rate : 2 167 Kbps
    Width : 1 092 pixels
    Height : 592 pixels
    Display aspect ratio : 16:9
    Frame rate : 23.976 fps
    Color space : YUV
    Chroma subsampling : 4:2:0
    Bit depth : 8 bits
    Scan type : Progressive
    Bits/(Pixel*Frame) : 0.140
    Stream size : 1.50 GiB (64%)
    Writing library : x264 core 120 r2120kMod 0c7dab9
    Encoding settings : cabac=1/ref=11/deblock=1:-2:-1/analyse=0x3:0x133/me=umh/subme=11/psy=1/fade_compensate=0.00/psy_rd=1.10:0.07/mixed_ref=1/me_range=32/chroma_me=1/trellis=2/8x8dct=1/cqm=0/deadzone=21,11/fast_pskip=0/chroma_qp_offset=-3/threads=6/sliced_threads=0/nr=0/decimate=1/interlaced=0/bluray_compat=0/constrained_intra=0/bframes=11/b_pyramid=2/b_adapt=2/b_bias=0/direct=1/weightb=1/open_gop=0/weightp=2/keyint=250/keyint_min=23/scenecut=40/intra_refresh=0/rc=crf/mbtree=0/crf=20.7000/qcomp=0.67/qpmin=0/qpmax=69/qpstep=4/ip_ratio=1.40/pb_ratio=1.20/aq=3:1.00
    Language : English
    Default : Yes
    Forced : No
    Matrix coefficients : BT.709-5, BT.1361, IEC 61966-2-4 709, SMPTE RP177
    Audio #1
    ID : 2
    Format : AC-3
    Format/Info : Audio Coding 3
    Mode extension : CM (complete main)
    Codec ID : A_AC3
    Duration : 1h 39mn
    Bit rate mode : Constant
    Bit rate : 384 Kbps
    Channel(s) : 6 channels
    Channel positions : Front: L C R, Side: L R, LFE
    Sampling rate : 48.0 KHz
    Bit depth : 16 bits
    Compression mode : Lossy
    Stream size : 273 MiB (11%)
    Title : Dub
    Language : Russian
    Default : Yes
    Forced : No
    Audio #2
    ID : 3
    Format : AC-3
    Format/Info : Audio Coding 3
    Mode extension : CM (complete main)
    Codec ID : A_AC3
    Duration : 1h 39mn
    Bit rate mode : Constant
    Bit rate : 384 Kbps
    Channel(s) : 6 channels
    Channel positions : Front: L C R, Side: L R, LFE
    Sampling rate : 48.0 KHz
    Bit depth : 16 bits
    Compression mode : Lossy
    Stream size : 273 MiB (11%)
    Title : AVO (Goblin)
    Language : Russian
    Default : No
    Forced : No
    Audio #3
    ID : 4
    Format : AC-3
    Format/Info : Audio Coding 3
    Mode extension : CM (complete main)
    Codec ID : A_AC3
    Duration : 1h 39mn
    Bit rate mode : Constant
    Bit rate : 384 Kbps
    Channel(s) : 6 channels
    Channel positions : Front: L C R, Side: L R, LFE
    Sampling rate : 48.0 KHz
    Bit depth : 16 bits
    Compression mode : Lossy
    Stream size : 273 MiB (11%)
    Title : Original
    Language : English
    Default : No
    Forced : No
    Text #1
    ID : 5
    Format : UTF-8
    Codec ID : S_TEXT/UTF8
    Codec ID/Info : UTF-8 Plain Text
    Title : Forced
    Language : Russian
    Default : Yes
    Forced : No
    Text #2
    ID : 6
    Format : UTF-8
    Codec ID : S_TEXT/UTF8
    Codec ID/Info : UTF-8 Plain Text
    Title : Goblin
    Language : Russian
    Default : No
    Forced : No
    Text #3
    ID : 7
    Format : UTF-8
    Codec ID : S_TEXT/UTF8
    Codec ID/Info : UTF-8 Plain Text
    Language : Russian
    Default : No
    Forced : No
    Text #4
    ID : 8
    Format : UTF-8
    Codec ID : S_TEXT/UTF8
    Codec ID/Info : UTF-8 Plain Text
    Title : stevvie
    Language : Russian
    Default : No
    Forced : No
    Text #5
    ID : 9
    Format : UTF-8
    Codec ID : S_TEXT/UTF8
    Codec ID/Info : UTF-8 Plain Text
    Title : Original
    Language : English
    Default : No
    Forced : No
    Скриншоты для ознакомления


    Размер скачиваемого торрента: 2.35 GB (2521243577 Bytes)

    Плохой Санта/Bad Santa (2003) BDRip-AVC | D, A | Unrated Cut скачать через торрент бесплатно
    загрузка...
    Рейтинг →
     (голосов: 1, оценка 5/5, голосовать можно 1 раз )

    Другие торренты по теме:

  • Плохой Санта / Bad Santa (2003) BDRip-AVC от FREEISLAND
  • Дурнев 1 : Плохой Санта (2013) SATRip
  • Плохой Санта / Bad Santa (2003) BDRip от New-Team | Гоблин скачать через торрент бесплатно
  • Плохой Санта / Bad Santa (2003) BDRip 1080p от MediaClub | D, A | Расширенная версия скачать через торрент бесплатно
  • Плохой Санта / Bad Santa (2003) BDRip-AVC от MediaClub | D, A | Расширенная версия скачать через торрент бесплатно
  • Плохой Санта / Bad Santa (2003) BDRip-AVC | D | Расширенная версия
  • Плохой Санта 2 / Bad Santa 2 (2016) TS | D
  • Плохой Санта 2 / Bad Santa 2 (2016 ) WEB-DLRip | A


    • Комментарии (0):

      Информация

      Информация

        Посетители, находящиеся в группе Гости, не могут оставлять комментарии в данной новости.

        ↓ Меню



        ↓ Опрос

        А Вы добавили сайт в закладки?
        Да
        Не


        Top 10 за месяц (Фильмы)