.
Авторизация | Регистрация
Хочешь лучшие торренты? Добавь свой email!
Добавить
» » Легенда адского дома / The Legend of Hell House (1973) BDRemux 1080p от NovaLan скачать через торрент бесплатно




    Легенда адского дома / The Legend of Hell House (1973) BDRemux 1080p от NovaLan скачать через торрент бесплатно

    Опубликовал: Админ | Дата: 27-02-2015, 11:10 | Просмотров: 211


    Русское название:Легенда адского дома
    Русское название в мировом прокате:The Legend of Hell House
    Создали в:1973
    Категория жанра:Ужасы, детектив
    Главный режиссер:Джон Хаф
    Актеры:Памела Франклин, Родди МакДауэлл, Клайв Ревилл, Гэйл Ханникат, Роланд Калвер, Питер Боулз, Майкл Гоф
    Сюжет фильма:
    Умирающий миллионер Рудольф Дойч, который хочет исследовать возможность жизни после смерти, нанимает четверых ученых, чтобы они провели одну неделю в здании, известном под названием Адский дом, в котором, как считается, обитают привидения. Физик Лайонелл Барретт, его жена Энн и двое медиумов-экстрасенсов, Флоренс Таннер и Бенджамин Фишер, прибывают в дом Эмерика Веласко, жестокого садиста. В конце двадцатых годов в доме было обнаружено множество трупов пришедших к Веласко гостей, но тело самого хозяина так никогда и не нашли…

    Снималось в:Великобритания, Academy Pictures Corporation
    Время просмотра:01:33:52
    Перевод текста:Профессиональный многоголосый/Авторский одноголосый (Визгунов)
    Кодек для видео:H.264
    Качество фильма:Blu-Ray Remux 1080p
    Информация о видео:MPEG-4 AVC, 19996 Кбит/с, 1920х1080, 23.976 кадр/с
    Информация о звуке:Русский (AC3, 6 ch, 448 Кбит/с), (AC3, 4 ch, 448 Кбит/с), английский (DTS-HD MA, 2 ch, 961 Кбит/с), (AC3, 2 ch, 192 Кбит/с), немецкий (DTS-HD MA, 2 ch, 986 Кбит/с)
    Субтитры:Русские, английские
    Инфо-файл

    Полное имя : E:Раздачи_EThe.Legend.of.Hell.House.1973.BDRemux.1080p.NovaLan.mkv
    Формат : Matroska
    Версия формата : Version 4/Version 2
    Размер файла : 15,1 Гбайт
    Продолжительность : 1 ч. 34 м.
    Режим общего битрейта : Переменный
    Общий поток : 23,0 Мбит/сек
    Название фильма : The Legend of Hell House 1973 - NovaLan
    Дата кодирования : UTC 2014-08-17 07:19:25
    Программа кодирования : mkvmerge v7.1.0 (;Good Love;) 64bit built on Jul 27 2014 13:06:55
    Библиотека кодирования : libebml v1.3.0 + libmatroska v1.4.1
    DURATION : 01:31:43.835000000
    NUMBER_OF_FRAMES : 790
    NUMBER_OF_BYTES : 24929
    _STATISTICS_WRITING_APP : mkvmerge v7.1.0 (;Good Love;) 64bit built on Jul 27 2014 13:06:55
    _STATISTICS_WRITING_DATE_UTC : 2014-08-17 07:19:25
    _STATISTICS_TAGS : BPS DURATION NUMBER_OF_FRAMES NUMBER_OF_BYTES
    Видео
    Идентификатор : 1
    Формат : AVC
    Формат/Информация : Advanced Video Codec
    Профиль формата : High@L4.1
    Параметр CABAC формата : Да
    Параметр ReFrames формата : 4 кадра
    Идентификатор кодека : V_MPEG4/ISO/AVC
    Продолжительность : 1 ч. 34 м.
    Вид битрейта : Переменный
    Битрейт : 19,7 Мбит/сек
    Максимальный битрейт : 35,0 Мбит/сек
    Ширина : 1920 пикселей
    Высота : 1080 пикселей
    Соотношение сторон : 16:9
    Частота кадров : 23,976 кадра/сек
    Стандарт вещания : NTSC
    Цветовое пространство : YUV
    Субдискретизация насыщенности : 4:2:0
    Битовая глубина : 8 бит
    Тип развёртки : Прогрессивная
    Бит/(Пиксели*Кадры) : 0.395
    Размер потока : 12,9 Гбайт (86%)
    Заголовок : The Legend of Hell House 1973 - NovaLan
    Default : Да
    Forced : Нет
    Основные цвета : BT.709-5, BT.1361, IEC 61966-2-4, SMPTE RP177
    Характеристики трансфера : BT.709-5, BT.1361
    Коэффициенты матрицы : BT.709-5, BT.1361, IEC 61966-2-4 709, SMPTE RP177
    Аудио #1
    Идентификатор : 2
    Формат : AC-3
    Формат/Информация : Audio Coding 3
    Расширение режима : CM (complete main)
    Параметр Endianness формата : Big
    Идентификатор кодека : A_AC3
    Продолжительность : 1 ч. 34 м.
    Вид битрейта : Постоянный
    Битрейт : 448 Кбит/сек
    Каналы : 6 каналов
    Расположение каналов : Front: L C R, Side: L R, LFE
    Частота : 48,0 КГц
    Битовая глубина : 16 бит
    Метод сжатия : С потерями
    Размер потока : 302 Мбайт (2%)
    Язык : Russian
    Default : Да
    Forced : Нет
    Аудио #2
    Идентификатор : 3
    Формат : AC-3
    Формат/Информация : Audio Coding 3
    Расширение режима : CM (complete main)
    Параметр Endianness формата : Big
    Идентификатор кодека : A_AC3
    Продолжительность : 1 ч. 34 м.
    Вид битрейта : Постоянный
    Битрейт : 448 Кбит/сек
    Каналы : 4 канала
    Расположение каналов : Front: L C R, Side: C
    Частота : 48,0 КГц
    Битовая глубина : 16 бит
    Метод сжатия : С потерями
    Размер потока : 302 Мбайт (2%)
    Язык : Russian
    Default : Нет
    Forced : Нет
    Аудио #3
    Идентификатор : 4
    Формат : AC-3
    Формат/Информация : Audio Coding 3
    Расширение режима : CM (complete main)
    Параметр Endianness формата : Big
    Идентификатор кодека : A_AC3
    Продолжительность : 1 ч. 34 м.
    Вид битрейта : Постоянный
    Битрейт : 192 Кбит/сек
    Каналы : 2 канала
    Расположение каналов : Front: L R
    Частота : 48,0 КГц
    Битовая глубина : 16 бит
    Метод сжатия : С потерями
    Размер потока : 129 Мбайт (1%)
    Язык : English
    Default : Нет
    Forced : Нет
    Аудио #4
    Идентификатор : 5
    Формат : DTS
    Формат/Информация : Digital Theater Systems
    Профиль формата : MA/Core
    Идентификатор кодека : A_DTS
    Продолжительность : 1 ч. 34 м.
    Вид битрейта : Переменный
    Битрейт : 803 Кбит/сек/755 Кбит/сек
    Каналы : 2 канала
    Расположение каналов : Front: L R
    Частота : 48,0 КГц
    Битовая глубина : 16 бит
    Метод сжатия : Без потерь/Lossy
    Язык : English
    Default : Нет
    Forced : Нет
    Аудио #5
    Идентификатор : 6
    Формат : DTS
    Формат/Информация : Digital Theater Systems
    Профиль формата : MA/Core
    Идентификатор кодека : A_DTS
    Продолжительность : 1 ч. 34 м.
    Вид битрейта : Переменный
    Битрейт : 965 Кбит/сек/755 Кбит/сек
    Каналы : 2 канала
    Расположение каналов : Front: L R
    Частота : 48,0 КГц
    Битовая глубина : 16 бит
    Метод сжатия : Без потерь/Lossy
    Язык : German
    Default : Нет
    Forced : Нет
    Текст #1
    Идентификатор : 7
    Формат : UTF-8
    Идентификатор кодека : S_TEXT/UTF8
    Идентификатор кодека/Информация : UTF-8 Plain Text
    Язык : Russian
    Default : Нет
    Forced : Нет
    Текст #2
    Идентификатор : 8
    Формат : UTF-8
    Идентификатор кодека : S_TEXT/UTF8
    Идентификатор кодека/Информация : UTF-8 Plain Text
    Язык : English
    Default : Нет
    Forced : Нет
    Меню
    00:00:00.000 : en:Chapter 1
    00:07:41.210 : en:Chapter 2
    00:14:13.394 : en:Chapter 3
    00:20:52.416 : en:Chapter 4
    00:29:58.588 : en:Chapter 5
    00:37:50.101 : en:Chapter 6
    00:45:05.285 : en:Chapter 7
    00:54:00.445 : en:Chapter 8
    01:00:48.853 : en:Chapter 9
    01:08:36.362 : en:Chapter 10
    01:14:43.020 : en:Chapter 11
    01:22:51.006 : en:Chapter 12
    01:33:51.667 : en:Chapter 13

    Релиз группы NovaLan
    Автор сборки Sergei7721



    Релиз подготовил:
    Залил: Sergei7721
    Размер скачиваемого торрента: 15.11 GB (16221283974 Bytes)

    Легенда адского дома/The Legend of Hell House (1973) BDRemux 1080p от NovaLan скачать через торрент бесплатно
    загрузка...
    Рейтинг →
     (голосов: 1, оценка 5/5, голосовать можно 1 раз )

    Другие торренты по теме:

  • Легенда адского дома / The Legend of Hell House (1973) HDTVRip-AVC от NovaLan


    • Комментарии (0):

      Информация

      Информация

        Посетители, находящиеся в группе Гости, не могут оставлять комментарии в данной новости.

        ↓ Меню



        ↓ Опрос

        А Вы добавили сайт в закладки?
        Да
        Не


        Top 10 за месяц (Фильмы)