.
Авторизация | Регистрация
Хочешь лучшие торренты? Добавь свой email!
Добавить
» » Любой ценой / At Any Price (2012) HDTV 1080i скачать через торрент бесплатно




    Любой ценой / At Any Price (2012) HDTV 1080i скачать через торрент бесплатно

    Опубликовал: Админ | Дата: 27-02-2015, 11:10 | Просмотров: 183


    Детально о кино
    Русское название:Любой ценой
    Русское название в мировом прокате:At Any Price
    Создали в:2012
    Категория жанра:триллер, драма
    Главный режиссер:Рамин Бахрани
    Актеры:Деннис Куэйд, Зак Эфрон, Ким Диккенс, Хэзер Грэм, Клэнси Браун, Аарон Б. Одубер, Джейкоб Р. Одубер, Патрик В. Стивенс, Гай Мэсси, Джон Хугенэккер
    Сюжет фильма:
    Это история отца, который мечтает, что его сын унаследует семейный бизнес. К его сожалению сын мечтает стать гонщиком.

    Снималось в:США
    Время просмотра:01:39:26
    Перевод текста:Профессиональный (многоголосый закадровый)
    Файл
    Кодек для видео:H.264
    Качество фильма:HDTV 1080i
    Информация о видео:1920x1080 (16:9), 9061 Кбит/сек, 25.000 fps
    Информация о звуке:MP-2, 48000 Hz, 192 Кбит/сек, 2 ch
    Субтитры:нет
    Семпл
    MediaInfo

    Видео
    Идентификатор : 224 (0xE0)
    Идентификатор меню : 1 (0x1)
    Формат : AVC
    Формат/Информация : Advanced Video Codec
    Профиль формата : High@L4.1
    Параметр CABAC формата : Да
    Параметр ReFrames формата : 3 кадра
    Идентификатор кодека : 27
    Продолжительность : 1 ч. 39 м.
    Вид битрейта : Постоянный
    Битрейт : 9061 Кбит/сек
    Ширина : 1920 пикселей
    Высота : 1080 пикселей
    Соотношение сторон : 16:9
    Частота кадров : 25,000 кадров/сек
    Стандарт вещания : PAL
    Цветовое пространство : YUV
    Субдискретизация насыщенности : 4:2:0
    Битовая глубина : 8 бит
    Тип развёртки : Чересстрочная
    Порядок развёртки : Верхнее поле первое
    Бит/(Пиксели*Кадры) : 0.175
    Размер потока : 6,18 Гбайт (93%)
    Основные цвета : BT.709
    Характеристики трансфера : BT.709
    Коэффициенты матрицы : BT.709
    Аудио
    Идентификатор : 192 (0xC0)
    Идентификатор меню : 1 (0x1)
    Формат : MPEG Audio
    Версия формата : Version 1
    Профиль формата : Layer 2
    Идентификатор кодека : 3
    Продолжительность : 1 ч. 39 м.
    Вид битрейта : Постоянный
    Битрейт : 192 Кбит/сек
    Каналы : 2 канала
    Частота : 48,0 КГц
    Метод сжатия : С потерями
    Задержка видео : 16 мс.
    Размер потока : 137 Мбайт (2%)
    Язык : Russian

    Скриншоты для ознакомления

    Релиз подготовил:Rmk80disco
    Залил: Rmk80disco
    Размер скачиваемого торрента: 6.64 GB (7131635804 Bytes)

    Любой ценой/At Any Price (2012) HDTV 1080i скачать через торрент бесплатно
    загрузка...
    Рейтинг →
     (голосов: 1, оценка 5/5, голосовать можно 1 раз )

    Другие торренты по теме:

  • Следствие вели. Любой ценой! (2013) SATRip
  • Discovery: Выжить любой ценой / Ultimate Survival / Man vs. Wild (2006-2011) DVDRip, HDTVRip | P1
  • Любой ценой / At Any Price (2012) HDRip | P2
  • Любой ценой / At Any Price (2012) BDRip-AVC от HELLYWOOD | P2
  • Париж любой ценой / Paris tout prix (2013) BDRip 720p | Чистый звук
  • Париж любой ценой / Paris tout prix (2013) HDRip | Чистый звук
  • Париж любой ценой / Paris tout prix (2013) HDRip от Один 777 | Чистый звук скачать через торрент бесплатно
  • Париж любой ценой / Paris tout prix (2013) HDRip от -=HD-NET=- | КПК | Чистый звук


    • Комментарии (0):

      Информация

      Информация

        Посетители, находящиеся в группе Гости, не могут оставлять комментарии в данной новости.

        ↓ Меню



        ↓ Опрос

        А Вы добавили сайт в закладки?
        Да
        Не


        Top 10 за месяц (Фильмы)