.
Авторизация | Регистрация
Хочешь лучшие торренты? Добавь свой email!
Добавить
» » Безоружный / Gunless (2010) DVD-9 скачать через торрент бесплатно




    Безоружный / Gunless (2010) DVD-9 скачать через торрент бесплатно

    Опубликовал: Админ | Дата: 27-02-2015, 11:10 | Просмотров: 189


    Детально о кино
    Русское название:Безоружный
    Русское название в мировом прокате:Gunless
    Создали в:2010
    Категория жанра:Приключения, комедия, вестерн
    Главный режиссер:Уильям Филлипс
    Актеры:Сиенна Гиллори, Дастин Миллиган, Тайлер Мэйн, Грэм Грин, Каллум Кит Ренни, Пол Гросс, Лаура Бертрам, Майкл Эклунд, Алекс Захара, Глайнис Дейвис, Джоди Расикот, Донаван Стинсон, Тич Грант, Бронуэн Смит, Шоун Кэмпбелл
    Сюжет фильма:Тихое и спокойное общество в Канаде взбалтывается приходом американского ковбоя, известного, как Монтана Кид, разыскиваемого за убийство 7 человек. Вскоре все узнают, что его настоящее имя Шон Рафферти, и он признается в убийстве, не 7, а 11 человек. Все стало только хуже, он попадает под глаз местной милиции, а также вооруженным охотникам за головами, и они идут за ним по пятам.

    Снималось в:Канада
    Киностудия:Fort Langley National Historic Site, Fort Langley, Langley Township, British Columbia
    Время просмотра:01:28:58
    Перевод текста:Профессиональный многоголосый
    Файл
    Кодек для видео:MPEG-2
    Качество фильма:DVD-9
    Информация о видео:NTSC 16:9 (720x480) VBR
    Информация о звуке:Русский, английский (Dolby AC3, 2 ch)
    Меню
    DVDInfo
    Title: Локальный диск
    Size: 4.87 Gb ( 5 106 592 KBytes ) - DVD-9
    Enabled regions: 1, 2, 3, 4, 5, 6, 7, 8
    VTS_01 :
    Play Length: 01:28:58
    Video: NTSC 16:9 (720x480) VBR, Auto PanScan
    Audio:
    Russian (Dolby AC3, 2 ch)
    English (Dolby AC3, 2 ch)
    Menu Video:
    NTSC 4:3 (720x480) VBR
    Menu English Language Unit :
    Root Menu
    MediaInfo
    Общее
    Полное имя : E:1АААБезоружныйVIDEO_TSVTS_01_1.VOB
    Формат : MPEG-PS
    Размер файла : 1000 Мбайт
    Продолжительность : 17 м.
    Режим общего битрейта : Переменный
    Общий поток : 8173 Кбит/сек
    Видео
    Идентификатор : 224 (0xE0)
    Формат : MPEG Video
    Версия формата : Version 2
    Профиль формата : Main@Main
    Параметр BVOP формата : Да
    Параметр матрицы формата : По умолчанию
    Параметр GOP формата : M=3, N=12
    Продолжительность : 17 м.
    Вид битрейта : Переменный
    Битрейт : 7627 Кбит/сек
    Максимальный битрейт : 8832 Кбит/сек
    Ширина : 720 пикселей
    Высота : 480 пикселей
    Соотношение сторон : 16:9
    Частота кадров : 23,976 кадра/сек
    Стандарт вещания : NTSC
    Цветовое пространство : YUV
    Субдискретизация насыщенности : 4:2:0
    Битовая глубина : 8 бит
    Тип развёртки : Прогрессивная
    Порядок развёртки : 2:3 Pulldown
    Метод сжатия : С потерями
    Бит/(Пиксели*Кадры) : 0.920
    TimeCode_FirstFrame : 00:00:00;00
    TimeCode_Source : Group of pictures t_head
    Размер потока : 933 Мбайт (93%)
    Аудио #1
    Идентификатор : 189 (0xBD)-128 (0x80)
    Формат : AC-3
    Формат/Информация : Audio Coding 3
    Расширение режима : CM (complete main)
    Параметр Endianness формата : Big
    Режим смешивания : DVD-Video
    Продолжительность : 17 м.
    Вид битрейта : Постоянный
    Битрейт : 192 Кбит/сек
    Каналы : 2 канала
    Расположение каналов : Front: L R
    Частота : 48,0 КГц
    Битовая глубина : 16 бит
    Метод сжатия : С потерями
    Размер потока : 23,5 Мбайт (2%)
    Аудио #2
    Идентификатор : 189 (0xBD)-129 (0x81)
    Формат : AC-3
    Формат/Информация : Audio Coding 3
    Расширение режима : CM (complete main)
    Параметр Endianness формата : Big
    Режим смешивания : DVD-Video
    Продолжительность : 17 м.
    Вид битрейта : Постоянный
    Битрейт : 192 Кбит/сек
    Каналы : 2 канала
    Расположение каналов : Front: L R
    Частота : 48,0 КГц
    Битовая глубина : 16 бит
    Метод сжатия : С потерями
    Размер потока : 23,5 Мбайт (2%)
    Меню
    Скриншоты для ознакомления

    Залил: YArl
    Размер скачиваемого торрента: 4.87 GB (5229150208 Bytes)

    Безоружный/Gunless (2010) DVD-9 скачать через торрент бесплатно
    загрузка...
    Рейтинг →
     (голосов: 1, оценка 3/5, голосовать можно 1 раз )

    Другие торренты по теме:

  • Безоружный / Gunless (2010) HDTVRip 1080p от FilmRus


    • Комментарии (0):

      Информация

      Информация

        Посетители, находящиеся в группе Гости, не могут оставлять комментарии в данной новости.

        ↓ Меню



        ↓ Опрос

        А Вы добавили сайт в закладки?
        Да
        Не


        Top 10 за месяц (Фильмы)