.
Авторизация | Регистрация
Хочешь лучшие торренты? Добавь свой email!
Добавить
» » Любовь по рецепту и без / Better Living Through Chemistry (2014) BRip 1080p от New-Team | D, LM | лицензия скачать через торрент бесплатно




    Любовь по рецепту и без / Better Living Through Chemistry (2014) BRip 1080p от New-Team | D, LM | лицензия скачать через торрент бесплатно

    Опубликовал: Админ | Дата: 27-02-2015, 11:10 | Просмотров: 189

    Отпускается без рецепта

    Снималось в: США, Великобритания/Aegis Film Fund, Altus Productions, Ealing Metro International, Occupant Films
    Категория жанра: драма, комедия
    Создали в: 2014
    Время просмотра: 01:31:43
    Перевод текста:Профессиональный (дублированный)+ Любительский (многоголосый) - Студия Гараж
    Субтитры подготовлены: русские (Нотабеноид), английские
    Оригинальная аудиодорожка: английский
    Главный режиссер: Джофф Мур/Geoff Moore, Дэвид Посаментир/David Posamentier
    Актеры: Сэм Рокуэлл, Оливия Уайлд, Мишель Монахэн, Бен Шварц, Кен Ховард, Джейн Фонда, Рэй Лиотта, Норберт Лео Батц, Дженн Харрис, Харрисон Хольцер...
    Роли дублировали: Даниил Эльдаров, Сергей Чихачев
    Сюжет: Даг Варни — скромный фармацевт и подкаблучник. Всю жизнь окружающие пользовались его мягким характером и не принимали всерьёз. Но однажды произошла встреча, которая изменила всё. Её зовут Элизабет, она яркая, сексуальная, а ее девиз: Жить нужно в кайф!. Она открыла глаза Дагу на то, что вся его жизнь сера и уныла, а ключ к успеху лежит у него перед носом. Стоит лишь протянуть руку. С этого момента Дага не узнать. Теперь он уверен в себе, женщины без ума от него в постели, а в спорте ему нет равных. Но увлекшись своей новой жизнью, он заходит слишком далеко, а, как известно, за все в жизни приходится платить...

    Качество фильма: BDRip 1080p /DVD5 R5 от CD Land- Лицензионный диск
    Тип видео: MKV
    Информация о видео: 1920x800 (2.40:1), MPEG-4 AVC 10,9 Мбит/сек/23.976 fps/Бит/(Пиксели*Кадры) : 0.295
    Информация о звуке 1: Dolby Digital Audio Russian 448 kbps 5.1/48 kHz | Лицензия
    Информация о звуке 2: DTS Audio Russian 448 kbps 5.1/48 kHz | Студия Гараж
    Информация о звуке 3: DTS Audio English 448 kbps 5.1/48 kHz | Оригинал
    Тип видео субтитров: SoftSub (srt)
    Дополнительно: Фильм разбит на главы, как на оригинальном Blu-ray диске
    Раздача от:
    MediaInfo

    Общее
    Полное имя : Lubov.po.retseptu.i.bez.2014.D.BDRip.1080p.mkv
    Формат : Matroska
    Версия формата : Version 4/Version 2
    Размер файла : 10,3 Гбайт
    Продолжительность : 1 ч. 31 м.
    Режим общего битрейта : Переменный
    Общий поток : 16,1 Мбит/сек
    Дата кодирования : UTC 2014-08-16 14:10:17
    Программа кодирования : mkvmerge v7.1.0 (;Good Love;) 64bit built on Jul 27 2014 13:06:55
    Библиотека кодирования : libebml v1.3.0 + libmatroska v1.4.1
    DURATION : 01:31:43.648000000
    NUMBER_OF_FRAMES : 171989
    NUMBER_OF_BYTES : 308204288
    _STATISTICS_WRITING_APP : mkvmerge v7.1.0 (;Good Love;) 64bit built on Jul 27 2014 13:06:55
    _STATISTICS_WRITING_DATE_UTC : 2014-08-16 14:10:17
    _STATISTICS_TAGS : BPS DURATION NUMBER_OF_FRAMES NUMBER_OF_BYTES
    Видео
    Идентификатор : 1
    Формат : AVC
    Формат/Информация : Advanced Video Codec
    Профиль формата : High@L4.1
    Параметр CABAC формата : Да
    Параметр ReFrames формата : 5 кадров
    Идентификатор кодека : V_MPEG4/ISO/AVC
    Продолжительность : 1 ч. 31 м.
    Номинальный битрейт : 10,9 Мбит/сек
    Ширина : 1920 пикселей
    Высота : 800 пикселей
    Соотношение сторон : 2,40:1
    Режим частоты кадров : Постоянный
    Частота кадров : 23,976 кадра/сек
    Цветовое пространство : YUV
    Субдискретизация насыщенности : 4:2:0
    Битовая глубина : 8 бит
    Тип развёртки : Прогрессивная
    Бит/(Пиксели*Кадры) : 0.295
    Библиотека кодирования : x264 core 138 r2356 a1d3d17
    Настройки программы : cabac=1/ref=5/deblock=1:-3:-3/analyse=0x3:0x113/me=umh/subme=10/psy=1/psy_rd=1.00:0.05/mixed_ref=1/me_range=32/chroma_me=1/trellis=2/8x8dct=1/cqm=0/deadzone=21,11/fast_pskip=0/chroma_qp_offset=-2/threads=18/lookahead_threads=1/sliced_threads=0/nr=0/decimate=1/interlaced=0/bluray_compat=0/constrained_intra=0/bframes=5/b_pyramid=2/b_adapt=2/b_bias=0/direct=3/weightb=1/open_gop=0/weightp=2/keyint=250/keyint_min=23/scenecut=40/intra_refresh=0/rc=2pass/mbtree=0/bitrate=10857/ratetol=1.0/qcomp=0.70/qpmin=0/qpmax=69/qpstep=4/cplxblur=20.0/qblur=0.5/ip_ratio=1.40/pb_ratio=1.30/aq=2:0.90
    Язык : English
    Default : Да
    Forced : Нет
    DURATION : 01:31:43.494000000
    NUMBER_OF_FRAMES : 131952
    NUMBER_OF_BYTES : 7467361448
    _STATISTICS_WRITING_APP : mkvmerge v7.1.0 (;Good Love;) 64bit built on Jul 27 2014 13:06:55
    _STATISTICS_WRITING_DATE_UTC : 2014-08-16 14:10:17
    _STATISTICS_TAGS : BPS DURATION NUMBER_OF_FRAMES NUMBER_OF_BYTES
    Аудио #1
    Идентификатор : 2
    Формат : AC-3
    Формат/Информация : Audio Coding 3
    Расширение режима : CM (complete main)
    Параметр Endianness формата : Big
    Идентификатор кодека : A_AC3
    Продолжительность : 1 ч. 31 м.
    Вид битрейта : Постоянный
    Битрейт : 448 Кбит/сек
    Каналы : 6 каналов
    Расположение каналов : Front: L C R, Side: L R, LFE
    Частота : 48,0 КГц
    Битовая глубина : 16 бит
    Метод сжатия : С потерями
    Размер потока : 294 Мбайт (3%)
    Язык : Russian
    Default : Да
    Forced : Нет
    Аудио #2
    Идентификатор : 3
    Формат : DTS
    Формат/Информация : Digital Theater Systems
    Профиль формата : MA/Core
    Режим : 16
    Параметр Endianness формата : Big
    Идентификатор кодека : A_DTS
    Продолжительность : 1 ч. 31 м.
    Вид битрейта : Переменный
    Битрейт : Неизвестно/1509 Кбит/сек
    Каналы : 6 каналов
    Расположение каналов : Front: L C R, Side: L R, LFE
    Частота : 48,0 КГц
    Битовая глубина : 24 бит
    Метод сжатия : Без потерь/Lossy
    Заголовок : Студия Гараж
    Язык : Russian
    Default : Нет
    Forced : Нет
    Аудио #3
    Идентификатор : 4
    Формат : DTS
    Формат/Информация : Digital Theater Systems
    Режим : 16
    Параметр Endianness формата : Big
    Идентификатор кодека : A_DTS
    Продолжительность : 1 ч. 31 м.
    Вид битрейта : Постоянный
    Битрейт : 1509 Кбит/сек
    Каналы : 6 каналов
    Расположение каналов : Front: L C R, Side: L R, LFE
    Частота : 48,0 КГц
    Битовая глубина : 24 бит
    Метод сжатия : С потерями
    Размер потока : 990 Мбайт (9%)
    Язык : English
    Default : Нет
    Forced : Нет
    Текст #1
    Идентификатор : 5
    Формат : UTF-8
    Идентификатор кодека : S_TEXT/UTF8
    Идентификатор кодека/Информация : UTF-8 Plain Text
    Заголовок : notabenoid
    Язык : Russian
    Default : Нет
    Forced : Нет
    Текст #2
    Идентификатор : 6
    Формат : UTF-8
    Идентификатор кодека : S_TEXT/UTF8
    Идентификатор кодека/Информация : UTF-8 Plain Text
    Язык : English
    Default : Нет
    Forced : Нет
    Меню
    00:00:00.000 : en:00:00:00.000
    00:05:23.573 : en:00:05:23.573
    00:10:36.427 : en:00:10:36.427
    00:17:11.072 : en:00:17:11.072
    00:23:22.776 : en:00:23:22.776
    00:27:29.231 : en:00:27:29.231
    00:31:21.505 : en:00:31:21.505
    00:38:33.394 : en:00:38:33.394
    00:42:44.312 : en:00:42:44.312
    00:49:17.913 : en:00:49:17.913
    00:54:55.167 : en:00:54:55.167
    01:00:05.852 : en:01:00:05.852
    01:04:24.402 : en:01:04:24.402
    01:10:09.997 : en:01:10:09.997
    01:14:41.352 : en:01:14:41.352
    01:22:01.416 : en:01:22:01.416

    Скриншоты для ознакомления:



    Размер скачиваемого торрента: 10.29 GB (11053534111 Bytes)

    Любовь по рецепту и без/Better Living Through Chemistry (2014) BRip 1080p от New-Team | D, LM | лицензия скачать через торрент бесплатно
    загрузка...
    Рейтинг →
     (голосов: 1, оценка 4/5, голосовать можно 1 раз )

    Другие торренты по теме:

  • Любовь по рецепту и без / Любовь, секс и химия / Better Living Through Chemistry (2014) HDRip | Чистый звук скачать через торрент бесплатно
  • Любовь, секс и химия / Любовь по рецепту и без / Better Living Through Chemistry (2014) BDRemux 1080p от NovaLan
  • Любовь по рецепту и без / Любовь, секс и химия / Better Living Through Chemistry
  • Любовь по рецепту и без / Любовь, секс и химия / Better Living Through Chemistry
  • Любовь по рецепту и без / Любовь, секс и химия / Better Living Through Chemistry
  • Любовь по рецепту и без / Любовь, секс и химия / Better Living Through Chemistry
  • Любовь по-французски (2006) CAMRip
  • Любовь по-взрослому / This Is 40 (2012) DVDScr | Звук с TS


    • Комментарии (0):

      Информация

      Информация

        Посетители, находящиеся в группе Гости, не могут оставлять комментарии в данной новости.

        ↓ Меню



        ↓ Опрос

        А Вы добавили сайт в закладки?
        Да
        Не


        Top 10 за месяц (Фильмы)