.
Авторизация | Регистрация
Хочешь лучшие торренты? Добавь свой email!
Добавить
» » Побеждая время / Hours (2013) BDRip 1080p от New-Team | P | лицензия скачать через торрент бесплатно




    Побеждая время / Hours (2013) BDRip 1080p от New-Team | P | лицензия скачать через торрент бесплатно

    Опубликовал: Админ | Дата: 27-02-2015, 11:10 | Просмотров: 208

    Every second counts

    Снималось в: США/Hours Capital, Palm-Star Entertainment, Safran Company, The
    Категория жанра: триллер, драма
    Создали в: 2013
    Время просмотра: 01:37:00
    Перевод текста:Профессиональный (многоголосый)
    Субтитры подготовлены: нет
    Оригинальная аудиодорожка: нет
    Главный режиссер: Эрик Хайссерер/Eric Heisserer
    Актеры: Пол Уокер, Дженезис Родригез, Нэнси Нейв, Шэйн Якобсен, Наталия Ярожик, Тиджей Хассан, Лена Кларк, Кеша Баллард, Йоханс Майлс, Джудд Лорманд...
    Роли дублировали:
    Сюжет: Новый Орлеан. Август 2005-го. Смертоносная Катрина сметает все на своем пути. Отец изо всех сил пытается спасти свою дочь. Он понимает, что справиться со стихией, остановить беспощадный ураган не в его силах. На спасение дочери остаются считанные часы…

    Качество фильма: BDRip 1080p /Hours.2013.1080p.BluRay.DTS.x264-PublicHD + DVD5 R5 от Paradise
    Тип видео: MKV
    Информация о видео: 1920x804 (2.40:1), MPEG-4 AVC 10.2 Mбит/сек/23.976 fps/Бит/(Пиксели*Кадры) : 0.276
    Информация о звуке 1: Dolby Digital Audio Russian 384 kbps 5.1/48 kHz
    Информация о звуке 2: DTS English 1536 kbps 5.1/48 kHz
    Дополнительно: Фильм разбит на главы, как на оригинальном BLU-ray диске
    Раздача от:
    MediaInfo

    Общее
    Полное имя : Pobejdaya.vremya.2013.D.BDRip.1080p.mkv
    Формат : Matroska
    Версия формата : Version 4/Version 2
    Размер файла : 8,21 Гбайт
    Продолжительность : 1 ч. 37 м.
    Общий поток : 12,1 Мбит/сек
    Дата кодирования : UTC 2014-08-16 06:49:27
    Программа кодирования : mkvmerge v7.1.0 (;Good Love;) 64bit built on Jul 27 2014 13:06:55
    Библиотека кодирования : libebml v1.3.0 + libmatroska v1.4.1
    DURATION : 01:37:04.160000000
    NUMBER_OF_FRAMES : 182005
    NUMBER_OF_BYTES : 279559680
    _STATISTICS_WRITING_APP : mkvmerge v7.1.0 (;Good Love;) 64bit built on Jul 27 2014 13:06:55
    _STATISTICS_WRITING_DATE_UTC : 2014-08-16 06:49:27
    _STATISTICS_TAGS : BPS DURATION NUMBER_OF_FRAMES NUMBER_OF_BYTES
    Видео
    Идентификатор : 1
    Формат : AVC
    Формат/Информация : Advanced Video Codec
    Профиль формата : High@L4.1
    Параметр CABAC формата : Да
    Параметр ReFrames формата : 5 кадров
    Идентификатор кодека : V_MPEG4/ISO/AVC
    Продолжительность : 1 ч. 37 м.
    Битрейт : 10,2 Мбит/сек
    Ширина : 1920 пикселей
    Высота : 804 пикселя
    Соотношение сторон : 2,40:1
    Режим частоты кадров : Постоянный
    Частота кадров : 23,976 кадра/сек
    Цветовое пространство : YUV
    Субдискретизация насыщенности : 4:2:0
    Битовая глубина : 8 бит
    Тип развёртки : Прогрессивная
    Бит/(Пиксели*Кадры) : 0.276
    Размер потока : 6,76 Гбайт (82%)
    Библиотека кодирования : x264 core 133 r2334+704+50 a7549b7 tMod 8-bit@4:2:0 X86_64
    Настройки программы : cabac=1/ref=5/deblock=1:-3:-3/analyse=0x3:0x113/me=umh/subme=7/psy=1/fade_compensate=0.00/psy_rd=1.00:0.00/mixed_ref=1/me_range=16/chroma_me=1/trellis=1/8x8dct=1/cqm=0/deadzone=21,11/fast_pskip=1/chroma_qp_offset=-2/threads=16/lookahead_threads=2/sliced_threads=0/nr=0/decimate=1/interlaced=0/bluray_compat=0/constrained_intra=0/fgo=0/bframes=3/b_pyramid=2/b_adapt=1/b_bias=0/direct=3/weightb=1/open_gop=0/weightp=2/keyint=240/keyint_min=23/scenecut=40/intra_refresh=0/rc_lookahead=50/rc=2pass/mbtree=1/bitrate=10224/ratetol=1.0/qcomp=0.60/qpmin=0/qpmax=69/qpstep=4/cplxblur=20.0/qblur=0.5/ip_ratio=1.40/aq=4:1.00/aq-sensitivity=10.00/aq-factor=1.00:1.00:1.00/aq2=0/aq3=0
    Язык : English
    Default : Да
    Forced : Нет
    DURATION : 01:36:59.814000000
    NUMBER_OF_FRAMES : 139536
    NUMBER_OF_BYTES : 7432795184
    _STATISTICS_WRITING_APP : mkvmerge v7.1.0 (;Good Love;) 64bit built on Jul 27 2014 13:06:55
    _STATISTICS_WRITING_DATE_UTC : 2014-08-16 06:49:27
    _STATISTICS_TAGS : BPS DURATION NUMBER_OF_FRAMES NUMBER_OF_BYTES
    Аудио #1
    Идентификатор : 2
    Формат : AC-3
    Формат/Информация : Audio Coding 3
    Расширение режима : CM (complete main)
    Параметр Endianness формата : Big
    Идентификатор кодека : A_AC3
    Продолжительность : 1 ч. 37 м.
    Вид битрейта : Постоянный
    Битрейт : 384 Кбит/сек
    Каналы : 6 каналов
    Расположение каналов : Front: L C R, Side: L R, LFE
    Частота : 48,0 КГц
    Битовая глубина : 16 бит
    Метод сжатия : С потерями
    Размер потока : 267 Мбайт (3%)
    Язык : Russian
    Default : Да
    Forced : Нет
    Аудио #2
    Идентификатор : 3
    Формат : DTS
    Формат/Информация : Digital Theater Systems
    Режим : 16
    Параметр Endianness формата : Big
    Идентификатор кодека : A_DTS
    Продолжительность : 1 ч. 37 м.
    Вид битрейта : Постоянный
    Битрейт : 1509 Кбит/сек
    Каналы : 6 каналов
    Расположение каналов : Front: L C R, Side: L R, LFE
    Частота : 48,0 КГц
    Битовая глубина : 24 бит
    Метод сжатия : С потерями
    Размер потока : 1,02 Гбайт (12%)
    Язык : English
    Default : Нет
    Forced : Нет
    Меню
    00:00:00.000 : en:00:00:00.000
    00:07:04.591 : en:00:07:04.591
    00:15:39.230 : en:00:15:39.230
    00:23:37.166 : en:00:23:37.166
    00:32:11.429 : en:00:32:11.429
    00:40:26.424 : en:00:40:26.424
    00:49:04.525 : en:00:49:04.525
    00:56:11.368 : en:00:56:11.368
    01:04:57.268 : en:01:04:57.268
    01:14:31.926 : en:01:14:31.926
    01:23:40.432 : en:01:23:40.432
    01:32:41.139 : en:01:32:41.139

    Скриншоты для ознакомления:



    Размер скачиваемого торрента: 8.21 GB (8812118615 Bytes)

    Побеждая время/Hours (2013) BDRip 1080p от New-Team | P | лицензия скачать через торрент бесплатно
    загрузка...
    Рейтинг →
     (голосов: 1, оценка 3/5, голосовать можно 1 раз )

    Другие торренты по теме:

  • Побеждая время / Считанные часы / Hours (2013) DVD5 от New-Team | P | Лицензия скачать через торрент бесплатно


    • Комментарии (0):

      Информация

      Информация

        Посетители, находящиеся в группе Гости, не могут оставлять комментарии в данной новости.

        ↓ Меню



        ↓ Опрос

        А Вы добавили сайт в закладки?
        Да
        Не


        Top 10 за месяц (Фильмы)