.
Авторизация | Регистрация
Хочешь лучшие торренты? Добавь свой email!
Добавить
» » Железное поколение / Generation Iron (2013) BDRip-AVC | iPad | L2 скачать торрент бесплатно




    Железное поколение / Generation Iron (2013) BDRip-AVC | iPad | L2 скачать торрент бесплатно

    Опубликовал: Админ | Дата: 27-02-2015, 11:10 | Просмотров: 305


    Железное поколение/Generation Iron (2013) BDRip-AVC | iPad | L2

    Русское название:Железное поколение
    Русское название в мировом прокате:Generation Iron
    Создали в:2013
    Категория жанра:документальный, спорт, драма
    Главный режиссер:Влад Юдин
    Актеры:Микки Рурк, Фил Хит, Кай Грин, Бренч Уоррен, Дэннис Вульф, Виктор Мартинес, Арнольд Шварценеггер, Майкл Джей Уайт, Лу Ферриньо, Баста Раймс
    Сюжет фильма:
    Документальный фильм, который рассказывает о том, как тренируются культуристы, готовясь к конкурсу Мистер Олимпия. Конкурс Мистер Олимпия — это самое значимое международное соревнование по культуризму, проводимое под эгидой Международной федерации бодибилдинга. Конкурс был организован Джо Уэйдером с целью помочь победителям конкурса Мистер Вселенная продолжить тренировки, и зарабатывать деньги. Первый конкурс состоялся 18 сентября 1965 года в Нью-Йорке. С 1998 года, как правило, соревнования проводятся в Лас-Вегасе. За 48 лет (1965-2013) чемпионами становились 13 человек.

    Снималось в:США
    Киностудия:American Media, Vladar Company
    Время просмотра:01:47:10
    Перевод текста:Русский любительский двухголосый
    Файл
    Кодек для видео:H.264
    Качество фильма:BDRip-AVC 576p
    Информация о видео:1024x576 (16:9) at 23.976 fps, AVC at 3600 kbps
    Информация о звуке:
    1: АAС 2.0 116 kbps - Русский любительский двухголосый
    2: АAС 2.0 126 kbps - Английский
    Субтитры:Отсутствует
    MI

    General
    Complete name : I:modoutGeneration.Iron.2013.576p.L2.m4v
    Format : MPEG-4
    Codec ID : M4V
    File size : 2.92 GiB
    Duration : 1h 47mn
    Overall bit rate mode : Variable
    Overall bit rate : 3 899 Kbps
    Movie name : Железное поколение
    Performer : Vlad Yudin
    Genre : Sport
    ContentType : Short Film
    Deion : Документальный фильм, который рассказывает о том, как тренируются культуристы, готовясь к конкурсу Мистер Олимпия.
    Recorded date : UTC 2013-09-20 08:00:00
    Encoded date : UTC 2014-08-13 10:32:00
    Tagged date : UTC 2014-08-13 15:27:57
    Copyright : American Media, Vladar Company
    Cover : Yes
    ContentRating : mpaa|PG-13|300|
    Title/Sort : Generation Iron
    LongDeion : Документальный фильм, который рассказывает о том, как тренируются культуристы, готовясь к конкурсу Мистер Олимпия. Конкурс Мистер Олимпия — это самое значимое международное соревнование по культуризму, проводимое под эгидой Международной федерации бодибилдинга. Конкурс был организован Джо Уэйдером с целью помочь победителям конкурса Мистер Вселенная продолжить тренировки, и зарабатывать деньги. Первый конкурс состоялся 18 сентября 1965 года в Нью-Йорке. С 1998 года, как правило, соревнования проводятся в Лас-Вегасе. За 48 лет (1965-2013) чемпионами становились 13 человек.
    AppleStoreCatalogID : 749795
    Vendor : Apple:vendor_id:2013-749795
    Video
    ID : 1
    Format : AVC
    Format/Info : Advanced Video Codec
    Format profile : High@L4.1
    Format settings, CABAC : Yes
    Format settings, ReFrames : 9 frames
    Codec ID : avc1
    Codec ID/Info : Advanced Video Coding
    Duration : 1h 47mn
    Bit rate : 3 643 Kbps
    Maximum bit rate : 15.6 Mbps
    Width : 1 024 pixels
    Height : 576 pixels
    Display aspect ratio : 16:9
    Frame rate mode : Variable
    Frame rate : 23.950 fps
    Minimum frame rate : 23.810 fps
    Maximum frame rate : 24.390 fps
    Color space : YUV
    Chroma subsampling : 4:2:0
    Bit depth : 8 bits
    Scan type : Progressive
    Bits/(Pixel*Frame) : 0.258
    Stream size : 2.73 GiB (93%)
    Title : Generation.Iron.2013
    Language : English
    Encoded date : UTC 2014-08-13 10:32:00
    Tagged date : UTC 2014-08-13 10:32:32
    Matrix coefficients : BT.709
    Audio #1
    ID : 2
    Format : AAC
    Format/Info : Advanced Audio Codec
    Format profile : LC
    Codec ID : 40
    Duration : 1h 47mn
    Bit rate mode : Variable
    Bit rate : 115 Kbps
    Maximum bit rate : 199 Kbps
    Channel(s) : 2 channels
    Channel positions : Front: L R
    Sampling rate : 48.0 KHz
    Compression mode : Lossy
    Stream size : 87.7 MiB (3%)
    Title : DUB do4a
    Language : Russian
    Encoded date : UTC 2014-08-13 10:19:32
    Tagged date : UTC 2014-08-13 10:32:32
    Audio #2
    ID : 3
    Format : AAC
    Format/Info : Advanced Audio Codec
    Format profile : LC
    Codec ID : 40
    Duration : 1h 47mn
    Bit rate mode : Variable
    Bit rate : 127 Kbps
    Maximum bit rate : 218 Kbps
    Channel(s) : 2 channels
    Channel positions : Front: L R
    Sampling rate : 48.0 KHz
    Compression mode : Lossy
    Stream size : 97.5 MiB (3%)
    Language : English
    Encoded date : UTC 2014-08-13 10:25:39
    Tagged date : UTC 2014-08-13 10:32:32
    iTunes tags

    Sort Name: Generation Iron
    XID: Apple:vendor_id:2013-749795
    Content ID: 749795
    Copyright: American Media, Vladar Company
    ScreenWriters: Влад Юдин
    Producers: Эдвин Мехиа, Влад Юдин, Робин Чанг
    Director: Влад Юдин
    Cast: Mickey Rourke (Narrator), Michael Jai White (Himself), Lou Ferrigno (Himself), Mike Katz (Judge), Arnold Schwarzenegger (Himself), Busta Rhymes (Himself), Phil Heath (Himself)
    Rating: PG-13
    Long Deion: Документальный фильм, который рассказывает о том, как тренируются культуристы, готовясь к конкурсу Мистер Олимпия. Конкурс Мистер Олимпия — это самое значимое международное соревнование по культуризму, проводимое под эгидой Международной федерации бодибилдинга. Конкурс был организован Джо Уэйдером с целью помочь победителям конкурса Мистер Вселенная продолжить тренировки, и зарабатывать деньги. Первый конкурс состоялся 18 сентября 1965 года в Нью-Йорке. С 1998 года, как правило, соревнования проводятся в Лас-Вегасе. За 48 лет (1965-2013) чемпионами становились 13 человек.
    Deion: Документальный фильм, который рассказывает о том, как тренируются культуристы, готовясь к конкурсу Мистер Олимпия.
    Release Date: 2013-09-20T08:00:00Z
    Genre: Sport
    Artist: Vlad Yudin
    Name: Железное поколение
    x264

    x264 info: frame I:1224 Avg QP:14.43 size:141846
    x264 info: frame P:37169 Avg QP:18.22 size: 43768
    x264 info: frame B:115609 Avg QP:20.47 size: 9752
    x264 info: consecutive B-frames: 3.0% 3.5% 16.3% 19.8% 16.7% 32.0% 5.9% 1.1% 0.8% 0.5% 0.2% 0.1% 0.1%
    x264 info: mb I I16..4: 22.9% 40.1% 37.0%
    x264 info: mb P I16..4: 0.9% 6.7% 1.9% P16..4: 26.2% 36.4% 17.5% 6.9% 1.6% skip: 2.0%
    x264 info: mb B I16..4: 0.0% 0.6% 0.1% B16..8: 38.2% 22.1% 4.3% direct: 5.8% skip:28.9% L0:36.2% L1:46.2% BI:17.5%
    x264 info: 8x8 transform intra:64.8% inter:45.3%
    x264 info: coded y,uvDC,uvAC intra: 97.0% 80.5% 56.8% inter: 29.1% 17.4% 7.9%
    x264 info: i16 v,h,dc,p: 5% 6% 30% 59%
    x264 info: i8 v,h,dc,ddl,ddr,vr,hd,vl,hu: 10% 10% 8% 9% 13% 13% 13% 12% 13%
    x264 info: i4 v,h,dc,ddl,ddr,vr,hd,vl,hu: 11% 11% 5% 9% 14% 13% 13% 11% 13%
    x264 info: i8c dc,h,v,p: 39% 27% 18% 16%
    x264 info: Weighted P-Frames: Y:3.8% UV:2.4%
    x264 info: ref P L0: 60.1% 12.9% 11.1% 4.8% 3.4% 2.6% 2.1% 1.4% 1.3% 0.2% 0.0%
    x264 info: ref B L0: 92.1% 4.0% 1.7% 0.7% 0.5% 0.4% 0.3% 0.2%
    x264 info: ref B L1: 95.9% 4.1%
    x264 info: kb/s:3642.68
    Screenshots



    Залил: gekka
    Размер скачиваемого торрента: 2.92 GB (3133604790 Bytes)

    Железное поколение/Generation Iron (2013) BDRip-AVC | iPad | L2 торрент скачать бесплатно
    загрузка...
    Рейтинг →
     (голосов: 1, оценка 5/5, голосовать можно 1 раз )

    Другие торренты по теме:

  • Железное кольцо Сталинграда (2003) DVDRip от -=HD-NET=- скачать через торрент бесплатно
  • Железное небо / Iron Sky (2012) BDRip от HQCLUB | Лицензия скачать через торрент бесплатно
  • Железное кольцо Сталинграда / 2003 / РУ / DVD-5
  • Железное небо / Iron Sky (2012) HDRip-AVC | Directors Cut | D


    • Комментарии (0):

      Информация

      Информация

        Посетители, находящиеся в группе Гости, не могут оставлять комментарии в данной новости.

        ↓ Меню



        ↓ Опрос

        А Вы добавили сайт в закладки?
        Да
        Не


        Top 10 за месяц (Фильмы)