.
Авторизация | Регистрация
Хочешь лучшие торренты? Добавь свой email!
Добавить
» » 13-й район: Кирпичные особняки / Brick Mansions (2014) BDRip 720p | Чистый звук скачать торрент бесплатно




    13-й район: Кирпичные особняки / Brick Mansions (2014) BDRip 720p | Чистый звук скачать торрент бесплатно

    Опубликовал: Админ | Дата: 27-02-2015, 11:10 | Просмотров: 192


    Детально о кино
    Русское название:13-й район: Кирпичные особняки
    Русское название в мировом прокате:Brick Mansions
    Создали в:2014
    Категория жанра:Боевик, криминал
    Главный режиссер:Камиль Деламарр
    Актеры:Пол Уокер, Давид Белль, RZA, Гучи Бой, Каталина Денис, Аиша Исса, Карло Рота, Андреас Апергис, Ричард Земан, Роберт Мэйллет
    Сюжет фильма:
    История детектива под прикрытием, ищущего оружие массового уничтожения, похищенное наркодилером гетто Кирпичные дома. Детектив обращается за помощью к знатоку района Лино, единственному человеку, который не боится бандитов.

    Снималось в:Франция, Канада
    Киностудия:Brick Mansions Productions Inc, Canal+ fr, Cin?, D8, EuropaCorp
    Время просмотра:01:30:10
    Перевод текста:ДублированныйЧистый звук
    Файл
    Кодек для видео:AVC
    Качество фильма:BDRip 720p
    Информация о видео:1280x536, 24 fps, 5800 kbps
    Информация о звуке 1:DTS, 48 kHz, 6 ch, 1510 KbpsАнглийский
    Информация о звуке 2:AC3, 48 kHz, 2 ch, 384 KbpsРусский
    Media Info
    General
    Unique ID : 219453633226960744606500016437883822541 (0xA5193B7C2EF0DB2C978B131D21A3E1CD)
    Complete name : D:Загрузки µTorrent13_Raj0n.K1rp1ch1.2014.D.BDRip.720p.mkv
    Format : Matroska
    Format version : Version 2
    File size : 4.84 GiB
    Duration : 1h 30mn
    Overall bit rate : 7 693 Kbps
    Encoded date : UTC 2014-08-15 15:21:14
    Writing application : mkvmerge v7.1.0 (;Good Love;) 64bit built on Jul 27 2014 13:06:55
    Writing library : libebml v1.3.0 + libmatroska v1.4.1
    DURATION : 01:30:09.984000000
    NUMBER_OF_FRAMES : 169062
    NUMBER_OF_BYTES : 259679232
    _STATISTICS_WRITING_APP : mkvmerge v7.1.0 (;Good Love;) 64bit built on Jul 27 2014 13:06:55
    _STATISTICS_WRITING_DATE_UTC : 2014-08-15 15:21:14
    _STATISTICS_TAGS : BPS DURATION NUMBER_OF_FRAMES NUMBER_OF_BYTES
    Video
    ID : 1
    Format : AVC
    Format/Info : Advanced Video Codec
    Format profile : High@L4.1
    Format settings, CABAC : Yes
    Format settings, ReFrames : 12 frames
    Codec ID : V_MPEG4/ISO/AVC
    Duration : 1h 30mn
    Bit rate : 5 800 Kbps
    Width : 1 280 pixels
    Height : 536 pixels
    Display aspect ratio : 2.40:1
    Frame rate mode : Constant
    Frame rate : 24.000 fps
    Color space : YUV
    Chroma subsampling : 4:2:0
    Bit depth : 8 bits
    Scan type : Progressive
    Bits/(Pixel*Frame) : 0.352
    Stream size : 3.56 GiB (73%)
    Writing library : x264 core 142 r2431+42 c69a006 tMod 8-bit@4:2:0 X86_64
    Encoding settings : cabac=1/ref=12/deblock=1:-3:-3/analyse=0x3:0x113/me=umh/subme=11/psy=1/fade_compensate=0.00/psy_rd=0.90:0.05/mixed_ref=1/me_range=32/chroma_me=1/trellis=2/8x8dct=1/cqm=0/deadzone=21,11/fast_pskip=0/chroma_qp_offset=-3/threads=18/lookahead_threads=3/sliced_threads=0/nr=0/decimate=0/interlaced=0/bluray_compat=0/constrained_intra=0/fgo=0/bframes=8/b_pyramid=2/b_adapt=2/b_bias=0/direct=3/weightb=1/open_gop=0/weightp=2/keyint=240/keyint_min=24/scenecut=40/intra_refresh=0/rc_lookahead=40/rc=2pass/mbtree=0/bitrate=5800/ratetol=1.0/qcomp=0.70/qpmin=0:0:0/qpmax=69:69:69/qpstep=4/cplxblur=20.0/qblur=0.5/vbv_maxrate=40000/vbv_bufsize=30000/nal_hrd=none/filler=0/ip_ratio=1.20/pb_ratio=1.20/aq=4:0.85/aq-sensitivity=10.00/aq-factor=1.00:1.00:1.00/aq2=0/aq3=0
    Language : English
    Default : Yes
    Forced : No
    DURATION : 01:30:10.000000000
    NUMBER_OF_FRAMES : 129840
    NUMBER_OF_BYTES : 3920242942
    _STATISTICS_WRITING_APP : mkvmerge v7.1.0 (;Good Love;) 64bit built on Jul 27 2014 13:06:55
    _STATISTICS_WRITING_DATE_UTC : 2014-08-15 15:21:14
    _STATISTICS_TAGS : BPS DURATION NUMBER_OF_FRAMES NUMBER_OF_BYTES
    Audio #1
    ID : 2
    Format : DTS
    Format/Info : Digital Theater Systems
    Mode : 16
    Format settings, Endianness : Big
    Codec ID : A_DTS
    Duration : 1h 30mn
    Bit rate mode : Constant
    Bit rate : 1 509 Kbps
    Channel(s) : 6 channels
    Channel positions : Front: L C R, Side: L R, LFE
    Sampling rate : 48.0 KHz
    Bit depth : 16 bits
    Compression mode : Lossy
    Stream size : 973 MiB (20%)
    Language : English
    Default : No
    Forced : No
    Audio #2
    ID : 3
    Format : AC-3
    Format/Info : Audio Coding 3
    Mode extension : CM (complete main)
    Format settings, Endianness : Big
    Codec ID : A_AC3
    Duration : 1h 30mn
    Bit rate mode : Constant
    Bit rate : 384 Kbps
    Channel(s) : 2 channels
    Channel positions : Front: L R
    Sampling rate : 48.0 KHz
    Bit depth : 16 bits
    Compression mode : Lossy
    Stream size : 248 MiB (5%)
    Default : Yes
    Forced : No

    Скриншоты для ознакомления

    Размер скачиваемого торрента: 4.84 GB (5202192711 Bytes)

    13-й район: Кирпичные особняки/Brick Mansions (2014) BDRip 720p | Чистый звук торрент скачать бесплатно
    загрузка...
    Рейтинг →
     (голосов: 1, оценка 3/5, голосовать можно 1 раз )

    Другие торренты по теме:

  • 13-й район: Дилогия / Banlieue 13: Dilogy (2004 - 2009) BDRip-АVC | D
  • 13-й район / Banlieue 13 (2004) BDRip-AVC от 0ptimus | D, P, A
  • 13-й район: Ультиматум / Banlieue 13: Ultimatum (2009) BDRip-AVC от 0ptimus | D, P, A
  • 13-й район: Ультиматум / Banlieue 13 Ultimatum (2009) HDRip от Sanjar NeoJet | КПК | Лицензия
  • 13-й район / Banlieue 13 (2004) BDRip 720p от Leonardo and Scarabey | D, P
  • 13-й район: Ультиматум / Banlieue 13 Ultimatum (2009) BDRip 720p от Leonardo and Scarabey | D, P
  • 13-й район: Кирпичные особняки / Brick Mansions (2014) HD 720p | Трейлер
  • 13-й район: Кирпичные особняки / Brick Mansions


    • Комментарии (0):

      Информация

      Информация

        Посетители, находящиеся в группе Гости, не могут оставлять комментарии в данной новости.

        ↓ Меню



        ↓ Опрос

        А Вы добавили сайт в закладки?
        Да
        Не


        Top 10 за месяц (Фильмы)