.
Авторизация | Регистрация
Хочешь лучшие торренты? Добавь свой email!
Добавить
» » Каштаны пустыни / Les chtaigniers du dsert (2010) HDTV 1080i скачать через торрент бесплатно




    Каштаны пустыни / Les chtaigniers du dsert (2010) HDTV 1080i скачать через торрент бесплатно

    Опубликовал: Админ | Дата: 27-02-2015, 11:10 | Просмотров: 282


    Детально о кино
    Русское название:Каштаны пустыни
    Русское название в мировом прокате:Les ch?taigniers du d?sert
    Создали в:2010
    Категория жанра:клерикальная драма, экранизация
    Главный режиссер:Каролин Юппер
    Актеры:Элоди Наварр, Луи Вель, Франсуа Марторе, Тома Жуанне, Изабель Садоян, Матиа Млекюз, Жан-Клод Друо, Джеймс Жерар, Александра Стюарт, Ванесса Гуид
    Сюжет фильма:
    Накануне своей свадьбы молодая успешная женщина решает съездить в свой родной городок в Севеннах, чтобы узнать больше о своих корнях. Это путешествие изменит всю ее жизнь.

    Снималось в:Франция
    Время просмотра:01:31:14 + 01:42:19
    Перевод текста:Профессиональный (многоголосый закадровый)
    Файл
    Кодек для видео:AVC/H.264
    Качество фильма:HDTV 1080i
    Информация о видео:1920x1080 (16:9), 9100 Кбит/сек, 25.000 fps
    Информация о звуке:MP-2, 48000 Hz, 192 Кбит/сек, 2 ch
    Субтитры:нет
    Семпл
    MediaInfo

    Видео
    Идентификатор : 224 (0xE0)
    Идентификатор меню : 1 (0x1)
    Формат : AVC
    Формат/Информация : Advanced Video Codec
    Профиль формата : High@L4.1
    Параметр CABAC формата : Да
    Параметр ReFrames формата : 3 кадра
    Идентификатор кодека : 27
    Продолжительность : 1 ч. 31 м.
    Вид битрейта : Постоянный
    Битрейт : 9100 Кбит/сек
    Ширина : 1920 пикселей
    Высота : 1080 пикселей
    Соотношение сторон : 16:9
    Частота кадров : 25,000 кадров/сек
    Стандарт вещания : PAL
    Цветовое пространство : YUV
    Субдискретизация насыщенности : 4:2:0
    Битовая глубина : 8 бит
    Тип развёртки : Чересстрочная
    Порядок развёртки : Верхнее поле первое
    Бит/(Пиксели*Кадры) : 0.176
    Размер потока : 5,69 Гбайт (93%)
    Основные цвета : BT.709
    Характеристики трансфера : BT.709
    Коэффициенты матрицы : BT.709
    Аудио
    Идентификатор : 192 (0xC0)
    Идентификатор меню : 1 (0x1)
    Формат : MPEG Audio
    Версия формата : Version 1
    Профиль формата : Layer 2
    Идентификатор кодека : 3
    Продолжительность : 1 ч. 31 м.
    Вид битрейта : Постоянный
    Битрейт : 192 Кбит/сек
    Каналы : 2 канала
    Частота : 48,0 КГц
    Метод сжатия : С потерями
    Задержка видео : 16 мс.
    Размер потока : 125 Мбайт (2%)
    Язык : Russian

    Скриншоты для ознакомления

    Релиз подготовил:Rmk80disco
    Залил: Rmk80disco
    Размер скачиваемого торрента: 12.98 GB (13937385076 Bytes)

    Каштаны пустыни/Les chtaigniers du dsert (2010) HDTV 1080i скачать через торрент бесплатно
    загрузка...
    Рейтинг →
     (голосов: 1, оценка 3/5, голосовать можно 1 раз )

    Другие торренты по теме:



      Комментарии (0):

      Информация

      Информация

        Посетители, находящиеся в группе Гости, не могут оставлять комментарии в данной новости.

        ↓ Меню



        ↓ Опрос

        А Вы добавили сайт в закладки?
        Да
        Не


        Top 10 за месяц (Фильмы)