.
Авторизация | Регистрация
Хочешь лучшие торренты? Добавь свой email!
Добавить
» » 15 дней в другом мире / 15 jours ailleurs (2013) HDTV 1080i скачать торрент бесплатно




    15 дней в другом мире / 15 jours ailleurs (2013) HDTV 1080i скачать торрент бесплатно

    Опубликовал: Админ | Дата: 27-02-2015, 11:10 | Просмотров: 194


    Детально о кино
    Русское название:15 дней в другом мире
    Русское название в мировом прокате:15 jours ailleurs
    Создали в:2013
    Категория жанра:драма
    Главный режиссер:Дидье Бивель
    Актеры:Фатима Адум, Бернар Алан, Лоран Бато, Дидье Бурдон. Жюдит Шемла, Агат Дронне, Элина Ловенсон, Камиль Панонакль, Aude Saintier, Лусия Санчес
    Сюжет фильма:
    После нервного срыва и попытки покалечить себя Винсана помещают в психиатрическое отделение. Там к нему проникается дружескими чувствами пациентка Элен, которая отчаянно хочет вернуть своего сына и надеется, что Винсан ей в этом поможет.


    Снималось в:Франция
    Время просмотра:01:27:42
    Перевод текста:Профессиональный (многоголосый закадровый)
    Файл
    Кодек для видео:H.264
    Качество фильма:HDTV 1080i
    Информация о видео:1920x1080 (16:9), 9028 Кбит/сек, 25.000 fps
    Информация о звуке:MP-2, 48000 Hz, 192 Кбит/сек, 2 ch
    Субтитры:нет
    Семпл
    MediaInfo

    Видео
    Идентификатор : 224 (0xE0)
    Идентификатор меню : 1 (0x1)
    Формат : AVC
    Формат/Информация : Advanced Video Codec
    Профиль формата : High@L4.1
    Параметр CABAC формата : Да
    Параметр ReFrames формата : 3 кадра
    Идентификатор кодека : 27
    Продолжительность : 1 ч. 27 м.
    Вид битрейта : Постоянный
    Битрейт : 9028 Кбит/сек
    Ширина : 1920 пикселей
    Высота : 1080 пикселей
    Соотношение сторон : 16:9
    Частота кадров : 25,000 кадров/сек
    Стандарт вещания : PAL
    Цветовое пространство : YUV
    Субдискретизация насыщенности : 4:2:0
    Битовая глубина : 8 бит
    Тип развёртки : Чересстрочная
    Порядок развёртки : Верхнее поле первое
    Бит/(Пиксели*Кадры) : 0.174
    Размер потока : 5,43 Гбайт (93%)
    Основные цвета : BT.709
    Характеристики трансфера : BT.709
    Коэффициенты матрицы : BT.709
    Аудио
    Идентификатор : 192 (0xC0)
    Идентификатор меню : 1 (0x1)
    Формат : MPEG Audio
    Версия формата : Version 1
    Профиль формата : Layer 2
    Идентификатор кодека : 3
    Продолжительность : 1 ч. 27 м.
    Вид битрейта : Постоянный
    Битрейт : 192 Кбит/сек
    Каналы : 2 канала
    Частота : 48,0 КГц
    Метод сжатия : С потерями
    Задержка видео : 24 мс.
    Размер потока : 120 Мбайт (2%)
    Язык : Russian

    Скриншоты для ознакомления

    Релиз подготовил:Rmk80disco
    Залил: Rmk80disco
    Размер скачиваемого торрента: 5.84 GB (6266465820 Bytes)

    15 дней в другом мире/15 jours ailleurs (2013) HDTV 1080i торрент скачать бесплатно
    загрузка...
    Рейтинг →
     (голосов: 1, оценка 4/5, голосовать можно 1 раз )

    Другие торренты по теме:

  • 15-летняя и беременная / Fifteen and Pregnant (1998) DVDRip скачать через торрент бесплатно
  • Opera Next 15.0 Build 15.0.1147.18 (2013) PC
  • Новости. 15.15 (2014) IPTVRip 480p | 50 FPS
  • Лето, когда мне было 15 / Den sommeren jeg fylte 15 (1975) DVDRip | Sub скачать через торрент бесплатно
  • 15 республик. Выпуск 2 Армения и Азербайджан (Эфир от 23.11.2014) / 15 республік скачать через торрент бесплатно
  • 15 республик. Выпуск 1 Россия (Эфир от 16.11.2014) / 15 республік скачать через торрент бесплатно
  • 15 республик. Выпуск 3 Грузия и Молдова (Эфир от 30.11.2014) / 15 республік скачать через торрент бесплатно
  • Ashampoo Burning Studio 15 15.0.1.39 Final (2014) РС | RePack Portable by KpoJIuK


    • Комментарии (0):

      Информация

      Информация

        Посетители, находящиеся в группе Гости, не могут оставлять комментарии в данной новости.

        ↓ Меню



        ↓ Опрос

        А Вы добавили сайт в закладки?
        Да
        Не


        Top 10 за месяц (Фильмы)