.
Авторизация | Регистрация
Хочешь лучшие торренты? Добавь свой email!
Добавить
» » Легенда о красном драконе / Rencontre avec le dragon (2003) DVDRip от MediaClub | P скачать торрент бесплатно




    Легенда о красном драконе / Rencontre avec le dragon (2003) DVDRip от MediaClub | P скачать торрент бесплатно

    Опубликовал: Админ | Дата: 27-02-2015, 11:10 | Просмотров: 200


    Детально о кино
    Русское название:Легенда о красном драконе
    Русское название в мировом прокате:Rencontre avec le dragon
    Создали в:2003
    Категория жанра:Приключения, драма
    Главный режиссер:Хелен Эйнджел
    Актеры:Даниель Отой, Николас Ноле, Серхи Лопес, Эммануэль Дево, Титофф, Жильбер Мелки, Морис Гаррель, Клод Перрон, Фридерик Пруст, Жан-Франсуа Галлот
    Сюжет фильма:
    Начало XIII века. Случай сводит отважного юношу Феликса с его кумиром, легендарным рыцарем Гийомом де Монтабаном, прознанным Красным Драконом. По повелению Папы Римского странствующий крестоносец, которого, как гласит предание, отвергает смерть, разыскивает придворного певца любви, но беглеца намерен добыть и заклятый враг Гийома, рыцарь Месполед, готовый ради этого пойти на коварный обман и убийство. В жестоких стычках и изматывающих походах Феликс доказывает грозному Гийому свою преданность, однако юный оруженосец не догадывается, что покрытое шрамами сердце Красного Дракона скрывает страшные тайны прошлого, призрака которых не в силах сокрушить острый меч бесстрашного воина…

    Снималось в:Франция, Люксембург
    Киностудия:Canal+, Diaphana Films, France 3 Cinеma, Gimages, La Sofica Sofinergie 5, Rhone-Alpes Cinema
    Время просмотра:01:45:04
    Перевод текста:Профессиональный многоголосый
    Файл
    Кодек для видео:XviD
    Качество фильма:DVDRip
    Информация о видео:1788 Кбит/с, 720x304, 25.000 кадр/с
    Информация о звуке:Русский (АС3, 2 ch, 192 Кбит/с)
    Семпл
    Скриншоты для ознакомления

    MI
    Общее
    Полное имя : Legenda.o.krasnom.drakone.2003.DVDRip.MediaClub.avi
    Формат : AVI
    Формат/Информация : Audio Video Interleave
    Размер файла : 1,46 Гбайт
    Продолжительность : 1 ч. 45 м.
    Общий поток : 1990 Кбит/сек
    Название фильма : MediaClub
    Программа кодирования : VirtualDubMod 1.5.10.2 (build 2540/release)
    Библиотека кодирования : VirtualDubMod build 2540/release
    Видео
    Идентификатор : 0
    Формат : MPEG-4 Visual
    Профиль формата : Advanced Simple@L5
    Параметр BVOP формата : 2
    Параметр QPel формата : Нет
    Параметр GMC формата : Без точки перехода
    Параметр матрицы формата : Default (MPEG)
    Идентификатор кодека : XVID
    Идентификатор кодека/Подсказка : XviD
    Продолжительность : 1 ч. 45 м.
    Битрейт : 1788 Кбит/сек
    Ширина : 720 пикселей
    Высота : 304 пикселя
    Соотношение сторон : 2,35:1
    Частота кадров : 25,000 кадров/сек
    Цветовое пространство : YUV
    Субдискретизация насыщенности : 4:2:0
    Битовая глубина : 8 бит
    Тип развёртки : Прогрессивная
    Метод сжатия : С потерями
    Бит/(Пиксели*Кадры) : 0.327
    Размер потока : 1,31 Гбайт (90%)
    Библиотека кодирования : XviD 65
    Аудио
    Идентификатор : 1
    Формат : AC-3
    Формат/Информация : Audio Coding 3
    Расширение режима : CM (complete main)
    Параметр Endianness формата : Big
    Идентификатор кодека : 2000
    Продолжительность : 1 ч. 45 м.
    Вид битрейта : Постоянный
    Битрейт : 192 Кбит/сек
    Каналы : 2 канала
    Расположение каналов : Front: L R
    Частота : 48,0 КГц
    Битовая глубина : 16 бит
    Метод сжатия : С потерями
    Размер потока : 144 Мбайт (10%)
    Выравнивание : Разделение по промежуткам
    Продолжительность промежутка : 40 мс. (1,00 видеокадр)
    Время предзагрузки промежутка : 500 мс.

    Релиз подготовил:
    Залил: poja
    Размер скачиваемого торрента: 1.46 GB (1567748096 Bytes)

    Легенда о красном драконе/Rencontre avec le dragon (2003) DVDRip от MediaClub | P торрент скачать бесплатно
    загрузка...
    Рейтинг →
     (голосов: 1, оценка 5/5, голосовать можно 1 раз )

    Другие торренты по теме:

  • Феи и легенда загадочного зверя / Феи : Легенда о чудовище (2015) HDRip скачать через торрент бесплатно
  • Легенда о бессмертии / Легенда про безсмертя / 1985 / СТ / VHSRip
  • Л.О.Р.Д. Легенда о разорении династий / L.O.R.D: Legend of Ravaging Dynasties (2016) TC-720p от Batafurai Team и SOUND-GROUP | L2
  • Л.О.Р.Д. Легенда о разорении династий / L.O.R.D: Legend of Ravaging Dynasties (2016) WEB-DLRip-AVC от Batafurai Team и SOUND-GROUP | L2
  • Доктор заяц и легенда о Зубном королевстве / Legend of dental Kingdom (2009) DVDRip от RG Superdetki
  • Легенда о Брюсе Ли / The Legend of Bruce Lee (2008) DVDRip
  • Легенда о Костоломе / Legend of the BoneKnapper Dragon (2010) BDRip 720p | Невафильм
  • Легенда о Зорро / The Legend of Zorro (1996-1997) DVDRip


    • Комментарии (0):

      Информация

      Информация

        Посетители, находящиеся в группе Гости, не могут оставлять комментарии в данной новости.

        ↓ Меню



        ↓ Опрос

        А Вы добавили сайт в закладки?
        Да
        Не


        Top 10 за месяц (Фильмы)