.
Авторизация | Регистрация
Хочешь лучшие торренты? Добавь свой email!
Добавить
» » Щедрость Перрье / Награда от Перрье / Perriers Bounty (2009) BDRip 1080p скачать через торрент бесплатно




    Щедрость Перрье / Награда от Перрье / Perriers Bounty (2009) BDRip 1080p скачать через торрент бесплатно

    Опубликовал: Админ | Дата: 27-02-2015, 11:10 | Просмотров: 229


    Детально о кино
    Русское название:Щедрость Перрье/Награда от Перрье
    Русское название в мировом прокате:Perrier;s Bounty
    Создали в:2009
    Категория жанра:Боевик, триллер, драма, комедия, криминал
    Главный режиссер:Йен Фитцгиббон
    Актеры:Киллиан Мерфи, Джим Бродбент, Брендан Глисон, Домналл Глисон, Гэбриел Бирн, Джоди Уитейкер, Брендан Койл, Падрейк Делейни, Эндрю Симпсон, Нед Деннехи
    Сюжет фильма:
    Действие фильма разворачивается в Дублине вокруг трёх беглецов, спасающихся от гангстера по имени Перрье, который, в свою очередь, отчаянно пытается сохранить авторитет и деньги после случайного убийства преданного напарника...
    Рецензия от Юрия Сербина

    Очень хорошее кино. Киллиан Мэрфи в главной роли. Глизон и Бродбент в фильме практически от начала и до конца, то есть, это не приманка. Замечательная такая едкая криминальная трагикомедия. Гейбриэл Бирн озвучивает Смерть. Смотреть обязательно надо. У Бродбента это вообще, наверное, одна из лучших ролей.
    Собственно, это и Залечь на дно... и Карты, деньги.... По сути, это типичный представитель жанра, но очень уж хорошо снято и очень хорошо сыграно.
    Фабула сюжета такова - главному герою, невезучему раздолбаю, нужно завтра отдать деньги местному мафиози (Глизон), которые тот взял у него в долг. Денег, естественно, нет и достать их вроде как неоткуда. В отчаянии парень обращается к местному ростовщику-бандиту, но у того денег сейчас нет, зато он предлагает ему провернуть вместе с ним ограбление - может, так ему что-то перепадет и он расплатится по долгам. Парень соглашается...
    Одновременно к парню внезапно приезжает его блудный отец (Бродбент), который якобы приехал попрощаться, так как скоро умрет. Чтобы не спойлерить, подробности раскрывать не буду, но об этом ему сообщила сама Смерть.
    Попутно парень пытается успокоить свою соседку, которой изменяет ее бойфренд, а она в благодарность случайно пристрелила одного из бандитов, которые явились вытрясать долг из парня. Так как и соседка и отец теперь таскаются за парнем, как привязанные, им придется помогать ему доставать деньги и разбираться с мафиози Глизоном.

    Дополнительно

    • За Профессиональный двухголосый (Студия NLS) большое спасибо - Painter
    • За перевод большое спасибо Юрию Сербину, за его наложение - AnryV, а за русские субтитры по этому переводу и великолепную возможность ознакомиться с тем, что такое ирландский акцент - Instigator-NN



    Снималось в:Великобритания, Ирландия
    Киностудия:Irish Film Board, Number 9 Films, Parallel Film Productions Ltd., Premiere Picture
    Время просмотра:01:27:37
    Перевод текста:Профессиональный двухголосый (Студия NLS), авторский одноголосый (Юрий Сербин)
    Файл
    Кодек для видео:x264
    Качество фильма:BDRip 1080p
    Информация о видео:MPEG-4 AVC, 9962 Кбит/с, 1920х800, 23.976 кадр/с
    Информация о звуке:Русский (AC3, 2 ch, 192 Кбит/с), (AC3, 6 ch, 448 Кбит/с), английский (DTS, 6 ch, 1536 Кбит/с)
    Субтитры:Русские (по переводу Юрия Сербина), английские
    MI

    Общее
    Уникальный идентификатор : 189523050116355870292248201601173395533 (0x8E94CFCE00256967B216EA85F36F984D)
    Полное имя : Perriers Bounty.2009.BDRip.1080p.mkv
    Формат : Matroska
    Версия формата : Version 4/Version 2
    Размер файла : 7,41 Гбайт
    Продолжительность : 1 ч. 27 м.
    Общий поток : 12,1 Мбит/сек
    Название фильма : Created by DeathN2 for Кинозал.ТВ
    Дата кодирования : UTC 2014-08-06 13:21:59
    Программа кодирования : mkvmerge v6.9.1 (;Blue Panther;) 64bit built on Apr 18 2014 18:23:38
    Библиотека кодирования : libebml v1.3.0 + libmatroska v1.4.1
    Видео
    Идентификатор : 1
    Формат : AVC
    Формат/Информация : Advanced Video Codec
    Профиль формата : High@L4.1
    Параметр CABAC формата : Да
    Параметр ReFrames формата : 5 кадров
    Идентификатор кодека : V_MPEG4/ISO/AVC
    Продолжительность : 1 ч. 27 м.
    Битрейт : 9962 Кбит/сек
    Ширина : 1920 пикселей
    Высота : 800 пикселей
    Соотношение сторон : 2,40:1
    Режим частоты кадров : Постоянный
    Частота кадров : 23,976 кадра/сек
    Цветовое пространство : YUV
    Субдискретизация насыщенности : 4:2:0
    Битовая глубина : 8 бит
    Тип развёртки : Прогрессивная
    Бит/(Пиксели*Кадры) : 0.271
    Размер потока : 5,95 Гбайт (80%)
    Библиотека кодирования : x264 core 108 r1790 8eaf8a6
    Настройки программы : cabac=1/ref=5/deblock=1:-3:-3/analyse=0x3:0x113/me=umh/subme=10/psy=1/psy_rd=1.00:0.00/mixed_ref=1/me_range=32/chroma_me=1/trellis=2/8x8dct=1/cqm=0/deadzone=21,11/fast_pskip=0/chroma_qp_offset=-2/threads=6/sliced_threads=0/nr=0/decimate=0/interlaced=0/constrained_intra=0/bframes=10/b_pyramid=2/b_adapt=2/b_bias=0/direct=3/weightb=1/open_gop=0/weightp=2/keyint=250/keyint_min=23/scenecut=40/intra_refresh=0/rc=2pass/mbtree=0/bitrate=9962/ratetol=1.0/qcomp=0.60/qpmin=10/qpmax=51/qpstep=4/cplxblur=20.0/qblur=0.5/ip_ratio=1.40/pb_ratio=1.30/aq=1:0.50
    Язык : English
    Default : Да
    Forced : Нет
    Аудио #1
    Идентификатор : 2
    Формат : AC-3
    Формат/Информация : Audio Coding 3
    Расширение режима : CM (complete main)
    Параметр Endianness формата : Big
    Идентификатор кодека : A_AC3
    Продолжительность : 1 ч. 27 м.
    Вид битрейта : Постоянный
    Битрейт : 192 Кбит/сек
    Каналы : 2 канала
    Расположение каналов : Front: L R
    Частота : 48,0 КГц
    Битовая глубина : 16 бит
    Метод сжатия : С потерями
    Размер потока : 120 Мбайт (2%)
    Заголовок : DVO - NLS
    Язык : Russian
    Default : Нет
    Forced : Нет
    Аудио #2
    Идентификатор : 3
    Формат : AC-3
    Формат/Информация : Audio Coding 3
    Расширение режима : CM (complete main)
    Параметр Endianness формата : Big
    Идентификатор кодека : A_AC3
    Продолжительность : 1 ч. 27 м.
    Вид битрейта : Постоянный
    Битрейт : 448 Кбит/сек
    Каналы : 6 каналов
    Расположение каналов : Front: L C R, Side: L R, LFE
    Частота : 48,0 КГц
    Битовая глубина : 16 бит
    Метод сжатия : С потерями
    Размер потока : 281 Мбайт (4%)
    Заголовок : AVO - Сербин
    Язык : Russian
    Default : Да
    Forced : Нет
    Аудио #3
    Идентификатор : 4
    Формат : DTS
    Формат/Информация : Digital Theater Systems
    Режим : 16
    Параметр Endianness формата : Big
    Идентификатор кодека : A_DTS
    Продолжительность : 1 ч. 27 м.
    Вид битрейта : Постоянный
    Битрейт : 1509 Кбит/сек
    Каналы : 6 каналов
    Расположение каналов : Front: L C R, Side: L R, LFE
    Частота : 48,0 КГц
    Битовая глубина : 24 бит
    Метод сжатия : С потерями
    Размер потока : 946 Мбайт (12%)
    Заголовок : DTS 5.1 1536 kbps
    Язык : English
    Default : Нет
    Forced : Нет
    Текст #1
    Идентификатор : 5
    Формат : UTF-8
    Идентификатор кодека : S_TEXT/UTF8
    Идентификатор кодека/Информация : UTF-8 Plain Text
    Заголовок : Serbin
    Язык : Russian
    Default : Нет
    Forced : Нет
    Текст #2
    Идентификатор : 6
    Формат : UTF-8
    Идентификатор кодека : S_TEXT/UTF8
    Идентификатор кодека/Информация : UTF-8 Plain Text
    Язык : English
    Default : Нет
    Forced : Нет
    Меню
    00:00:00.000 : en:1. Нет покоя
    00:10:48.606 : en:2. Поиск работы
    00:17:07.610 : en:3. Самооборона
    00:23:25.404 : en:4. Ликвидация
    00:26:57.324 : en:5. Перрье
    00:34:57.220 : en:6. Любовь слепа
    00:41:55.054 : en:7. Уволенный
    00:50:58.264 : en:8. Снукер
    01:01:00.866 : en:9. Предъява
    01:07:10.443 : en:10. Попытка спасения
    01:12:27.093 : en:11. Мрачный Жнец
    01:19:37.648 : en:12. Похороны

    Скриншоты для ознакомления





    Размер скачиваемого торрента: 7.41 GB (7960873659 Bytes)

    Щедрость Перрье/Награда от Перрье/Perriers Bounty (2009) BDRip 1080p скачать через торрент бесплатно
    загрузка...
    Рейтинг →
     (голосов: 1, оценка 3/5, голосовать можно 1 раз )

    Другие торренты по теме:

  • Щедрость Перрье / Награда от Перрье / Perriers Bounty (2009) BDRip-AVC от MediaClub | A
  • Щедрость Перрье / Perriers Bounty (2009) BDRemux 1080p от NovaLan
  • Щедрость Перрье / Perriers Bounty (2009) HDRip от Scarabey | P2


    • Комментарии (0):

      Информация

      Информация

        Посетители, находящиеся в группе Гости, не могут оставлять комментарии в данной новости.

        ↓ Меню



        ↓ Опрос

        А Вы добавили сайт в закладки?
        Да
        Не


        Top 10 за месяц (Фильмы)