.
Авторизация | Регистрация
Хочешь лучшие торренты? Добавь свой email!
Добавить
» » Щедрость Перрье / Perriers Bounty (2009) BDRemux 1080p от NovaLan скачать торрент бесплатно




    Щедрость Перрье / Perriers Bounty (2009) BDRemux 1080p от NovaLan скачать торрент бесплатно

    Опубликовал: Админ | Дата: 27-02-2015, 11:10 | Просмотров: 202


    Русское название:Щедрость Перрье
    Русское название в мировом прокате:Perrier;s Bounty
    Создали в:2009
    Категория жанра:Боевик, триллер, драма, комедия, криминал
    Главный режиссер:Йен Фитцгиббон
    Актеры:Киллиан Мёрфи, Джоди Уиттакер, Джим Бродбент, Брендан Глисон, Гэбриел Бирн, Падрейк Делани, Майкл МакЭлхаттон, Дон Вичерли, Лиам Каннингэм, Домналл Глисон, Брендан Койл, Пэт МакКейб, Конлет Хилл, Нед Деннехи, Гленн Спирс, Натали Бриттон, Бреффни МакКенна, Френсис Маджи, Вузза Конлон, Брендан Демпси, Брайан Доэрти, Джейн Бреннан, Майкл Форд-ФицДжералд, Крис Ньюман, Эндрю Симпсон
    Сюжет фильма:
    Действие фильма разворачивается в Дублине вокруг трёх беглецов, спасающихся от гангстера по имени Перрье, который, в свою очередь, отчаянно пытается сохранить авторитет и деньги после случайного убийства преданного напарника.

    Снималось в:Ирландия, Великобритания, Irish Film Board, Number 9 Films, Parallel Film Productions Ltd., Premiere Picture
    Время просмотра:01:27:38
    Перевод текста:Профессиональный двухголосый (Студия NLS)/Авторский одноголосый (Юрий Сербин)
    Кодек для видео:H.264
    Качество фильма:Blu-Ray Remux 1080p
    Информация о видео:MPEG-4 AVC, 19987 Кбит/с, 1920х1080, 23.976 кадр/с
    Информация о звуке:Русский (AC3, 2 ch, 192 Кбит/с), (DTS-HD MA, 6 ch, 2430 Кбит/с), английский (DTS-HD MA, 6 ch, 2426 Кбит/с)
    Субтитры:Русские, английские
    Инфо-файл

    Полное имя : D:Раздачи_DPerrier;s.Bounty.2009.BDRemux.1080p.NovaLan.mkv
    Формат : Matroska
    Версия формата : Version 4/Version 2
    Размер файла : 15,3 Гбайт
    Продолжительность : 1 ч. 27 м.
    Режим общего битрейта : Переменный
    Общий поток : 25,0 Мбит/сек
    Название фильма : Perrier;s Bounty 2009 - NovaLan
    Дата кодирования : UTC 2014-08-05 16:43:37
    Программа кодирования : mkvmerge v7.1.0 (;Good Love;) 64bit built on Jul 27 2014 13:06:55
    Библиотека кодирования : libebml v1.3.0 + libmatroska v1.4.1
    DURATION : 01:23:23.451000000
    NUMBER_OF_FRAMES : 1111
    NUMBER_OF_BYTES : 38933
    _STATISTICS_WRITING_APP : mkvmerge v7.1.0 (;Good Love;) 64bit built on Jul 27 2014 13:06:55
    _STATISTICS_WRITING_DATE_UTC : 2014-08-05 16:43:37
    _STATISTICS_TAGS : BPS DURATION NUMBER_OF_FRAMES NUMBER_OF_BYTES
    Видео
    Идентификатор : 1
    Формат : AVC
    Формат/Информация : Advanced Video Codec
    Профиль формата : High@L4.1
    Параметр CABAC формата : Да
    Параметр ReFrames формата : 4 кадра
    Параметр GOP формата : M=3, N=18
    Идентификатор кодека : V_MPEG4/ISO/AVC
    Продолжительность : 1 ч. 27 м.
    Вид битрейта : Переменный
    Битрейт : 19,9 Мбит/сек
    Максимальный битрейт : 35,0 Мбит/сек
    Ширина : 1920 пикселей
    Высота : 1080 пикселей
    Соотношение сторон : 16:9
    Частота кадров : 23,976 кадра/сек
    Стандарт вещания : NTSC
    Цветовое пространство : YUV
    Субдискретизация насыщенности : 4:2:0
    Битовая глубина : 8 бит
    Тип развёртки : Прогрессивная
    Бит/(Пиксели*Кадры) : 0.400
    Размер потока : 12,2 Гбайт (79%)
    Заголовок : Perrier;s Bounty 2009 - NovaLan
    Default : Да
    Forced : Нет
    Основные цвета : BT.709-5, BT.1361, IEC 61966-2-4, SMPTE RP177
    Характеристики трансфера : BT.709-5, BT.1361
    Коэффициенты матрицы : BT.709-5, BT.1361, IEC 61966-2-4 709, SMPTE RP177
    Аудио #1
    Идентификатор : 2
    Формат : AC-3
    Формат/Информация : Audio Coding 3
    Расширение режима : CM (complete main)
    Параметр Endianness формата : Big
    Идентификатор кодека : A_AC3
    Продолжительность : 1 ч. 27 м.
    Вид битрейта : Постоянный
    Битрейт : 192 Кбит/сек
    Каналы : 2 канала
    Расположение каналов : Front: L R
    Частота : 48,0 КГц
    Битовая глубина : 16 бит
    Метод сжатия : С потерями
    Размер потока : 120 Мбайт (1%)
    Язык : Russian
    Default : Да
    Forced : Нет
    Аудио #2
    Идентификатор : 3
    Формат : DTS
    Формат/Информация : Digital Theater Systems
    Профиль формата : MA/Core
    Идентификатор кодека : A_DTS
    Продолжительность : 1 ч. 27 м.
    Вид битрейта : Переменный
    Битрейт : 2209 Кбит/сек/1510 Кбит/сек
    Каналы : 6 каналов
    Расположение каналов : Front: L C R, Side: L R, LFE
    Частота : 48,0 КГц
    Битовая глубина : 16 бит
    Метод сжатия : Без потерь/Lossy
    Язык : Russian
    Default : Нет
    Forced : Нет
    Аудио #3
    Идентификатор : 4
    Формат : DTS
    Формат/Информация : Digital Theater Systems
    Профиль формата : MA/Core
    Идентификатор кодека : A_DTS
    Продолжительность : 1 ч. 27 м.
    Вид битрейта : Переменный
    Битрейт : 2245 Кбит/сек/1510 Кбит/сек
    Каналы : 6 каналов
    Расположение каналов : Front: L C R, Side: L R, LFE
    Частота : 48,0 КГц
    Битовая глубина : 16 бит
    Метод сжатия : Без потерь/Lossy
    Язык : English
    Default : Нет
    Forced : Нет
    Текст #1
    Идентификатор : 5
    Формат : UTF-8
    Идентификатор кодека : S_TEXT/UTF8
    Идентификатор кодека/Информация : UTF-8 Plain Text
    Язык : Russian
    Default : Нет
    Forced : Нет
    Текст #2
    Идентификатор : 6
    Формат : UTF-8
    Идентификатор кодека : S_TEXT/UTF8
    Идентификатор кодека/Информация : UTF-8 Plain Text
    Язык : English
    Default : Нет
    Forced : Нет
    Меню
    00:00:00.000 : en:Chapter 1
    00:10:48.606 : en:Chapter 2
    00:17:07.609 : en:Chapter 3
    00:23:25.403 : en:Chapter 4
    00:26:57.324 : en:Chapter 5
    00:34:57.219 : en:Chapter 6
    00:41:55.054 : en:Chapter 7
    00:50:58.263 : en:Chapter 8
    01:01:00.865 : en:Chapter 9
    01:07:10.443 : en:Chapter 10
    01:12:27.091 : en:Chapter 11
    01:19:37.647 : en:Chapter 12

    Релиз группа NovaLan
    Автор сборки Sergei7721



    Релиз подготовил:
    Залил: Sergei7721
    Размер скачиваемого торрента: 15.33 GB (16458276250 Bytes)

    Щедрость Перрье/Perriers Bounty (2009) BDRemux 1080p от NovaLan торрент скачать бесплатно
    загрузка...
    Рейтинг →
     (голосов: 1, оценка 3/5, голосовать можно 1 раз )

    Другие торренты по теме:

  • Щедрость Перрье / Награда от Перрье / Perriers Bounty (2009) BDRip-AVC от MediaClub | A
  • Щедрость Перрье / Награда от Перрье / Perriers Bounty (2009) BDRip 1080p скачать через торрент бесплатно
  • Щедрость Перрье / Perriers Bounty (2009) HDRip от Scarabey | P2


    • Комментарии (0):

      Информация

      Информация

        Посетители, находящиеся в группе Гости, не могут оставлять комментарии в данной новости.

        ↓ Меню



        ↓ Опрос

        А Вы добавили сайт в закладки?
        Да
        Не


        Top 10 за месяц (Фильмы)