.
Авторизация | Регистрация
Хочешь лучшие торренты? Добавь свой email!
Добавить
» » Мой ненавистный детектив / Watashi no Kirai na Tantei (2014) HDTVrip 720p скачать торрент бесплатно




    Мой ненавистный детектив / Watashi no Kirai na Tantei (2014) HDTVrip 720p скачать торрент бесплатно

    Опубликовал: Админ | Дата: 27-02-2015, 11:10 | Просмотров: 196


    Детально о кино
    Русское название:Мой ненавистный детектив
    Русское название в мировом прокате:Watashi no Kirai na Tantei
    Снималось в:Япония
    Создали в:2014
    Категория жанра:детектив, комедия
    Главный режиссер:Tsukamoto Renpei, Katayama Osamu
    Актеры:Аямэ Горики, Хироши Тамаки, Шуня Шираиши, Риса Найто,Юки Шиканума, Мисако Ясуда, Икки Ватанабе, Хинако Сано
    Сюжет фильма:Акэми Ниномия - любительница больших тайн. Она студентка, но не испытывает нужды в средствах, у нее имеется даже есть собственное здание. Частный детектив Морио Укай расследованиям убийств предпочитает розыск потерявшихся домашних любимцев у богатых владельцев, ввиду того, что первое - дело довольно не прибыльное. Дуэт объединяется ради разгадок всяких подозрительных случаев.
    Качество фильма:HDTVrip 720p
    Информация о видео:MPEG-4 AVC, ~ 3500 Кбит/с, 1280x720, 29,970 кадр/с
    Информация о звуке:Русский (AC3, 2 ch, 320 Кбит/с)
    Размер скачиваемого торрента:1.34 ГБ
    Время просмотра:01 ~ 00:49:00
    Перевод текста:Любительский одноголосый (закадровый)
    Тип перевода- Любительское одноголосое:mi24, по субтитрам:Фсг Альянс
    Семпл
    Инфо-файл

    Общее
    Уникальный идентификатор : 174721514568760504616874129842266434542 (0x837223C24F0C1030A73163461B7BEBEE)
    Полное имя : E:ЗагрузкиWatashi.no.Kirai.na.Tantei mi24Watashi.no.Kirai.na.Tantei.EP01 mi24.mkv
    Формат : Matroska
    Версия формата : Version 4/Version 2
    Размер файла : 1,34 Гбайт
    Продолжительность : 49 м.
    Общий поток : 3907 Кбит/сек
    Название фильма : ??????? ?01? ??????????720p HDTV x264 AAC-NGB
    Дата кодирования : UTC 2010-02-22 21:41:31
    Программа кодирования : mkvmerge v5.9.0 (;On The Loose;) built on Dec 9 2012 15:37:01
    Библиотека кодирования : libebml v1.3.0 + libmatroska v1.4.0
    Видео
    Идентификатор : 1
    Формат : AVC
    Формат/Информация : Advanced Video Codec
    Профиль формата : High@L4.1
    Параметр CABAC формата : Да
    Параметр ReFrames формата : 9 кадров
    Режим смешивания : Header stripping
    Идентификатор кодека : V_MPEG4/ISO/AVC
    Продолжительность : 49 м.
    Битрейт : 3509 Кбит/сек
    Ширина : 1280 пикселей
    Высота : 720 пикселей
    Соотношение сторон : 16:9
    Режим частоты кадров : Постоянный
    Частота кадров : 29,970 кадров/сек
    Цветовое пространство : YUV
    Субдискретизация насыщенности : 4:2:0
    Битовая глубина : 8 бит
    Тип развёртки : Прогрессивная
    Бит/(Пиксели*Кадры) : 0.127
    Размер потока : 1,20 Гбайт (90%)
    Заголовок : Encode by NGB@TTG
    Библиотека кодирования : x264 core 130 r2273 b3065e6
    Настройки программы : cabac=1/ref=9/deblock=1:-1:-1/analyse=0x3:0x133/me=umh/subme=10/psy=1/psy_rd=1.00:0.15/mixed_ref=1/me_range=48/chroma_me=1/trellis=2/8x8dct=1/cqm=0/deadzone=21,11/fast_pskip=0/chroma_qp_offset=-3/threads=12/lookahead_threads=2/sliced_threads=0/nr=0/decimate=1/interlaced=0/bluray_compat=0/constrained_intra=0/bframes=8/b_pyramid=2/b_adapt=2/b_bias=0/direct=3/weightb=1/open_gop=0/weightp=2/keyint=300/keyint_min=29/scenecut=40/intra_refresh=0/rc_lookahead=60/rc=crf/mbtree=1/crf=17.0/qcomp=0.60/qpmin=0/qpmax=69/qpstep=4/ip_ratio=1.40/aq=1:1.00
    Default : Да
    Forced : Нет
    Аудио
    Идентификатор : 2
    Формат : AC-3
    Формат/Информация : Audio Coding 3
    Расширение режима : CM (complete main)
    Параметр Endianness формата : Big
    Режим смешивания : Header stripping
    Идентификатор кодека : A_AC3
    Продолжительность : 49 м.
    Вид битрейта : Постоянный
    Битрейт : 320 Кбит/сек
    Каналы : 2 канала
    Расположение каналов : Front: L R
    Частота : 48,0 КГц
    Битовая глубина : 16 бит
    Метод сжатия : С потерями
    Размер потока : 112 Мбайт (8%)
    Default : Да
    Forced : Нет
    Меню
    00:00:00.000 : ja:Part A
    00:00:12.045 : ja:Part B
    00:23:04.015 : ja:Part C
    00:26:37.996 : ja:Part D
    00:40:28.993 : ja:Part E
    00:48:32.976 : ja:????

    Скриншоты для ознакомления

    Релиз подготовил:mi24
    Размер скачиваемого торрента: 1.34 GB (1435768400 Bytes)

    Мой ненавистный детектив/Watashi no Kirai na Tantei (2014) HDTVrip 720p торрент скачать бесплатно
    загрузка...
    Рейтинг →
     (голосов: 1, оценка 4/5, голосовать можно 1 раз )

    Другие торренты по теме:

  • Мой любовник мой сын / My Lover My Son / LInceste (1970) VHSRip | L1 скачать через торрент бесплатно
  • Мой сын, мой сын, что ты наделал / My Son, My Son, What Have Ye Done (2009) BDRip 1080p | P2, A
  • Мой сын, мой Спаситель / My Son, My Savior (2015) DVDRip | L1
  • Мой маленький пони: Дружба - это чудо / My Little Pony: Friendship Is Magic (2012) WEB-DLRip 720p | L1
  • Мой друг компьютер №26 (декабрь) (2012) PDF
  • Мой друг компьютер №25 (декабрь) (2012) PDF
  • Юшер - Мой Хип-Хап (2012) MP3
  • Мой сосед Тоторо / My Neighbor Totoro / Tonari no Totoro (1988) BDRip от HQCLUB


    • Комментарии (0):

      Информация

      Информация

        Посетители, находящиеся в группе Гости, не могут оставлять комментарии в данной новости.

        ↓ Меню



        ↓ Опрос

        А Вы добавили сайт в закладки?
        Да
        Не


        Top 10 за месяц (Фильмы)