.
Авторизация | Регистрация
Хочешь лучшие торренты? Добавь свой email!
Добавить
» » Черепа / The Skulls (2000) WEB-DLRip от Leon-masl | D скачать через торрент бесплатно




    Черепа / The Skulls (2000) WEB-DLRip от Leon-masl | D скачать через торрент бесплатно

    Опубликовал: Админ | Дата: 27-02-2015, 11:10 | Просмотров: 192


    Детально о кино
    Русское название:Черепа
    Русское название в мировом прокате:The Skulls
    Создали в:2000
    Категория жанра:Детектив, Триллер
    Главный режиссер:Роб Коэн/Rob Cohen
    Актеры:Джошуа Джексон/ Joshua Jackson,Пол Уокер/ Paul Walker, Хилл Харпер,Лесли Бибб/ Leslie Bibb,Кристофер МакДональд, Стив Харрис,Уильям Л. Петерсен, Крейг Т. Нельсон, Дэвид Асман, Скотт Гибсон, Нигель Беннетт, Эндрю Крулис, Дерек Аасланд, Дженнифер Мелино, Ноа Данби
    Сюжет фильма:
    О существовании тайной могущественной организации догадывались многие. На самом деле ее люди давно проникли во все сферы американского общества. Поименно их не знал никто. Однако, по крайней мере, три бывших президента Америки состояли в Черепах.
    Для Люка Макнамары приглашение вступить в Черепа стало сбывшейся мечтой. Он и его друг с честью прошли испытание: прижигание каленым железом на руке, которое сверху прикрывалось фирменными часами. Перед ним открылись неограниченные возможности, подкрепленные материальными благами. Он стал избранным. Но цена обретения этого права оказалась непомерно высокой… На него и его любимую девушку начата настоящая охота...

    Снималось в:США, Канада
    Время просмотра:01:46:34
    Перевод текста:Профессиональный (полное дублирование)
    Файл
    Кодек для видео:XVID
    Качество фильма:WEB-DLRip
    Информация о видео:704x384, 23.976fps 1762 kbps
    Информация о звуке:AC3, 48.0 khz, 2ch, 192Kbps
    MI
    Общее
    Полное имя : The.Skulls.2000.WEB-DLRip.avi
    Формат : AVI
    Формат/Информация : Audio Video Interleave
    Размер файла : 1,46 Гбайт
    Продолжительность : 1 ч. 46 м.
    Общий поток : 1962 Кбит/сек
    Программа кодирования : VirtualDubMod 1.5.10.2 (build 2542/release)
    Библиотека кодирования : VirtualDubMod build 2542/release
    Видео
    Идентификатор : 0
    Формат : MPEG-4 Visual
    Профиль формата : Advanced Simple@L5
    Параметр BVOP формата : 1
    Параметр QPel формата : Нет
    Параметр GMC формата : Без точки перехода
    Параметр матрицы формата : Выборочная
    Идентификатор кодека : XVID
    Идентификатор кодека/Подсказка : XviD
    Продолжительность : 1 ч. 46 м.
    Битрейт : 1762 Кбит/сек
    Ширина : 704 пикс.
    Высота : 384 пикс.
    Соотношение сторон : 16:9
    Частота кадров : 23,976 кадр/сек
    Цветовое пространство : YUV
    Подвыборка цветности : 4:2:0
    Битовая глубина : 8 бит
    Тип развёртки : Прогрессивная
    Метод сжатия : С потерями
    Бит/(Пиксели*Кадры) : 0.272
    Размер потока : 1,31 Гбайт (90%)
    Библиотека кодирования : XviD 73
    Аудио
    Идентификатор : 1
    Формат : AC-3
    Формат/Информация : Audio Coding 3
    Расширение режима : CM (complete main)
    Идентификатор кодека : 2000
    Продолжительность : 1 ч. 45 м.
    Вид битрейта : Постоянный
    Битрейт : 192 Кбит/сек
    Канал(ы) : 2 канала(ов)
    Расположение каналов : Front: L R
    Частота : 48,0 КГц
    Битовая глубина : 16 бит
    Метод сжатия : С потерями
    Размер потока : 145 Мбайт (10%)
    Выравнивание : Разделение по промежуткам
    Продолжительность промежутка : 42 мс. (1,01 видеокадр)
    Время предзагрузки промежутка : 500 ms
    Скриншоты для ознакомления

    Релиз подготовил:Leon-masl
    Залил: leon-masl
    Размер скачиваемого торрента: 1.46 GB (1567897600 Bytes)

    Черепа/The Skulls (2000) WEB-DLRip от Leon-masl | D скачать через торрент бесплатно
    загрузка...
    Рейтинг →
     (голосов: 1, оценка 4/5, голосовать можно 1 раз )

    Другие торренты по теме:

  • Индиана Джонс и Королевство xрустального черепа / Indiana Jones and the Kingdom of the Crystal Skull (2008) BDRip от HELLYWOOD
  • Черепа / The Skulls (2000) HDTV 1080i | D
  • Индиана Джонс и Королевство xрустального черепа / Indiana Jones and the Kingdom of the Crystal Skull (2008) BDRip от HQCLUB скачать через торрент бесплатно
  • Школа монстров: Побег с побережья черепа / Monster High: Escape from Skull Shores (2012) BDRip-AVC | iPad | D
  • Школа монстров: Побег с побережья черепа / Monster High: Escape from Skull Shores (2012) BDRip-AVC от HELLYWOOD | Лицензия скачать через торрент бесплатно
  • Конг: Остров черепа / Kong: Skull Island (2017) TS | D
  • Конг: Остров черепа / Kong: Skull Island (2017) TS | D
  • Тим Леббон - Конг: Остров черепа (2017) FB2


    • Комментарии (0):

      Информация

      Информация

        Посетители, находящиеся в группе Гости, не могут оставлять комментарии в данной новости.

        ↓ Меню



        ↓ Опрос

        А Вы добавили сайт в закладки?
        Да
        Не


        Top 10 за месяц (Фильмы)