.
Авторизация | Регистрация
Хочешь лучшие торренты? Добавь свой email!
Добавить
» » Боевые девчонки / Kick Ass Girls (2013) BDRip 720p | L2 скачать через торрент бесплатно




    Боевые девчонки / Kick Ass Girls (2013) BDRip 720p | L2 скачать через торрент бесплатно

    Опубликовал: Админ | Дата: 27-02-2015, 11:10 | Просмотров: 252


    Детально о кино
    Русское название: Боевые девчонки
    Русское название в мировом прокате: Kick Ass Girls
    Создали в: 2013
    Категория жанра: боевик
    Главный режиссер: Гу-Би ДжейСи
    Актеры:Крисси Чау, Гу-Би ДжейСи, Дада Ло, Хиди Ю
    Сюжет фильма:У Бо свой бойцовский клуб, она рассталась с парнем, поссорилась с подругой из-за парня, у нее куча проблем. И вот однажды она берет на работу смешную девушку Миу, которая привлекает в ее клуб много народа и внимание бизнесменши, занимающейся драгоценностями. Она предлагает девушкам стать ее телохранителями...девушки, в желании подзаработать денег, с радостью соглашаются, не подозревая в этом подвоха.

    Снималось в: Гонконг
    Время просмотра: 01:36:11
    Тип перевода:Любительское (двухголосое) DeadSno den904
    Файл
    Тип видео: MKV
    Качество фильма:BDRip 720p WiKi
    Информация о видео: 5220 kb/s, 1280x536
    Информация о звуке:Russian: AC3, 192 kb/s (2 ch)/Chinese Cantonese, Mandarin: AC3, 640 kb/s (6 ch)


    MI

    Format : Matroska
    Format version : Version 4/Version 2
    File size : 4.50 GiB
    Duration : 1h 36mn
    Overall bit rate mode : Variable
    Overall bit rate : 6 701 Kbps
    Movie name : Jubowo @ WiKi
    Encoded date : UTC 2014-07-31 20:25:18
    Writing application : mkvmerge v6.1.0 (;Old Devil;) built on Mar 4 2013 09:10:42
    Writing library : libebml v1.3.0 + libmatroska v1.4.0
    Video
    ID : 1
    Format : AVC
    Format/Info : Advanced Video Codec
    Format profile : High@L4.1
    Format settings, CABAC : Yes
    Format settings, ReFrames : 12 frames
    Codec ID : V_MPEG4/ISO/AVC
    Duration : 1h 36mn
    Bit rate mode : Variable
    Bit rate : 5 220 Kbps
    Maximum bit rate : 40.0 Mbps
    Width : 1 280 pixels
    Height : 536 pixels
    Display aspect ratio : 2.40:1
    Frame rate : 24.000 fps
    Color space : YUV
    Chroma subsampling : 4:2:0
    Bit depth : 8 bits
    Scan type : Progressive
    Bits/(Pixel*Frame) : 0.317
    Stream size : 3.42 GiB (76%)
    Writing library : x264 core 129 r2245+704+36 8e61944 tMod+MixAQ 8-bit@4:2:0 X86_64
    Encoding settings : cabac=1/ref=12/deblock=1:-3:-3/analyse=0x3:0x133/me=umh/subme=11/psy=1/fade_compensate=0.00/psy_rd=1.05:0.10/mixed_ref=1/me_range=32/chroma_me=1/trellis=2/8x8dct=1/cqm=0/deadzone=21,11/fast_pskip=0/chroma_qp_offset=-3/threads=18/lookahead_threads=3/sliced_threads=0/nr=0/decimate=0/interlaced=0/bluray_compat=0/constrained_intra=0/fgo=0/bframes=8/b_pyramid=2/b_adapt=2/b_bias=0/direct=3/weightb=1/open_gop=0/weightp=2/keyint=250/keyint_min=23/scenecut=40/intra_refresh=0/rc_lookahead=80/rc=2pass/mbtree=1/bitrate=5220/ratetol=1.0/qcomp=0.70/qpmin=0/qpmax=69/qpstep=4/cplxblur=20.0/qblur=0.5/ip_ratio=1.40/aq=3/aq-strength=0.80/aq-sensitivity=10.00/aq-ifactor=1.00/aq-pfactor=1.00/aq-bfactor=1.00/aq2
    Language : Chinese
    Default : Yes
    Forced : No
    Matrix coefficients : BT.709-5, BT.1361, IEC 61966-2-4 709, SMPTE RP177
    Audio #1
    ID : 2
    Format : AC-3
    Format/Info : Audio Coding 3
    Mode extension : CM (complete main)
    Format settings, Endianness : Big
    Codec ID : A_AC3
    Duration : 1h 36mn
    Bit rate mode : Constant
    Bit rate : 192 Kbps
    Channel(s) : 2 channels
    Channel positions : Front: L R
    Sampling rate : 48.0 KHz
    Bit depth : 16 bits
    Compression mode : Lossy
    Stream size : 132 MiB (3%)
    Language : Russian
    Default : Yes
    Forced : No
    Audio #2
    ID : 3
    Format : AC-3
    Format/Info : Audio Coding 3
    Mode extension : CM (complete main)
    Format settings, Endianness : Big
    Codec ID : A_AC3
    Duration : 1h 36mn
    Bit rate mode : Constant
    Bit rate : 640 Kbps
    Channel(s) : 6 channels
    Channel positions : Front: L C R, Side: L R, LFE
    Sampling rate : 48.0 KHz
    Bit depth : 16 bits
    Compression mode : Lossy
    Stream size : 440 MiB (10%)
    Title : Cantonese
    Language : Chinese
    Default : No
    Forced : No
    Audio #3
    ID : 4
    Format : AC-3
    Format/Info : Audio Coding 3
    Mode extension : CM (complete main)
    Format settings, Endianness : Big
    Codec ID : A_AC3
    Duration : 1h 36mn
    Bit rate mode : Constant
    Bit rate : 640 Kbps
    Channel(s) : 6 channels
    Channel positions : Front: L C R, Side: L R, LFE
    Sampling rate : 48.0 KHz
    Bit depth : 16 bits
    Compression mode : Lossy
    Stream size : 440 MiB (10%)
    Title : Mandarin
    Language : Chinese
    Default : No
    Forced : No
    Menu
    00:00:00.000 : en:00:00:00.000
    00:03:36.416 : en:00:03:36.416
    00:08:46.916 : en:00:08:46.916
    00:14:50.041 : en:00:14:50.041
    00:19:27.791 : en:00:19:27.791
    00:23:25.916 : en:00:23:25.916
    00:29:11.375 : en:00:29:11.375
    00:34:09.916 : en:00:34:09.916
    00:40:09.000 : en:00:40:09.000
    00:47:06.375 : en:00:47:06.375
    00:50:55.583 : en:00:50:55.583
    00:54:15.333 : en:00:54:15.333
    00:59:38.583 : en:00:59:38.583
    01:05:00.500 : en:01:05:00.500
    01:09:59.416 : en:01:09:59.416
    01:16:01.916 : en:01:16:01.916
    01:19:18.291 : en:01:19:18.291
    01:25:42.833 : en:01:25:42.833
    01:29:27.416 : en:01:29:27.416
    01:33:40.250 : en:01:33:40.250
    Скриншоты для ознакомления

    Размер скачиваемого торрента: 4.50 GB (4833607328 Bytes)

    Боевые девчонки/Kick Ass Girls (2013) BDRip 720p | L2 скачать через торрент бесплатно
    загрузка...
    Рейтинг →
     (голосов: 1, оценка 3/5, голосовать можно 1 раз )

    Другие торренты по теме:

  • Боевые искусства – ключи к совершенству №12 (72) (2012) pdf
  • Игорь Скрылев - Русские ножи. Боевые, охотничьи, туристические (2010) PDF
  • Игорь Скрылев - Боевые ножи (2010) PDF
  • Храм Шаолинь 3: Боевые искусства Шаолиня / Nan bei Shao Lin (1986) BDRip 720p от MediaClub | P2, A
  • Храм Шаолинь 3: Боевые искусства Шаолиня / Nan bei Shao Lin / The Shaolin Temple 3: Martial Arts of Shaolin (1986) BDRip-AVC от MediaClub | P2, A
  • Боевые Библиотекари: Книга Банторры / Tatakau Shisho: The Book of Bantorra (2009) BDRip | L2, L
  • Вооруженные силы. Боевые машины: Немецкий танк: Тигр / Battle stations Tiger attack (2001) DVDRip-AVC от -=HD-NET=-
  • Вооруженные силы. Боевые машины: Танк Т-34 / Battle Stations: T-34 - Russian Victory (2001) DVDRip-AVC от -=HD-NET=-


    • Комментарии (0):

      Информация

      Информация

        Посетители, находящиеся в группе Гости, не могут оставлять комментарии в данной новости.

        ↓ Меню



        ↓ Опрос

        А Вы добавили сайт в закладки?
        Да
        Не


        Top 10 за месяц (Фильмы)