.
Авторизация | Регистрация
Хочешь лучшие торренты? Добавь свой email!
Добавить
» » Жутко громко и запредельно близко / Extremely Loud amp Incredibly Close (2011) BDRip-AVC | iPad | P скачать через торрент бесплатно




    Жутко громко и запредельно близко / Extremely Loud amp Incredibly Close (2011) BDRip-AVC | iPad | P скачать через торрент бесплатно

    Опубликовал: Админ | Дата: 27-02-2015, 11:10 | Просмотров: 203


    Жутко громко и запредельно близко/Extremely Loud Incredibly Close (2011) BDRip-AVC | iPad | P

    Русское название:Жутко громко и запредельно близко
    Русское название в мировом прокате:Extremely Loud Incredibly Close
    Создали в:2011
    Категория жанра:драма, детектив, приключения
    Главный режиссер:Стивен Долдри
    Актеры:Томас Хорн, Сандра Буллок, Виола Дэвис, Том Хэнкс, Макс фон Сюдов, Джон Гудмен, Джеффри Райт, Зои Колдуэлл, Дэннис Хирн, Пол Клементовиц
    Сюжет фильма:
    Десятилетний Оскар теряет отца в день атаки на башни-близнецы в Нью-Йорке. По всему городу Оскар ищет информацию, которая должна привести его к разрешению загадки отца. На пути мальчику встретятся разные люди, но их всех объединяет страшная катастрофа, поэтому каждый пытается справиться с собственным горем.

    Снималось в:США
    Киностудия:Wildgaze Films, BBC Films, DCM Productions
    Время просмотра:02:09:28
    Перевод текста:Русский профессиональный многоголосый закадровый
    Файл
    Кодек для видео:H.264
    Качество фильма:BDRip 576p
    Информация о видео:1024x428 (2.40:1) at 23.976 fps, AVC at 1600 kbps
    Информация о звуке:
    1: АAС 2.0 125 kbps - Русский профессиональный многоголосый закадровый
    2: АAС 2.0 125 kbps - Английский
    Субтитры:Отсутствует
    MediaInfo

    General
    Complete name : I:modoutExtremely.Loud.Incredibly.Close.2011.576p.P.m4v
    Format : MPEG-4
    Codec ID : M4V
    File size : 1.54 GiB
    Duration : 2h 9mn
    Overall bit rate mode : Variable
    Overall bit rate : 1 702 Kbps
    Movie name : Жутко громко и запредельно близко
    Performer : Stephen Daldry
    Genre : Drama
    ContentType : Short Film
    Deion : Десятилетний Оскар теряет отца в день атаки на башни-близнецы в Нью-Йорке. По всему городу Оскар ищет информацию, которая должна привести его к разрешению загадки отца. На пути мальчику встретятся разные люди, но их всех объединяет катастрофа.
    Recorded date : UTC 2011-12-25 08:00:00
    Encoded date : UTC 2014-07-30 20:30:15
    Tagged date : UTC 2014-07-30 20:43:17
    Copyright : Warner Bros., Scott Rudin Productions, Paramount Pictures
    Cover : Yes
    ContentRating : mpaa|PG-13|300|
    Title/Sort : Extremely Loud Incredibly Close
    LongDeion : Десятилетний Оскар теряет отца в день атаки на башни-близнецы в Нью-Йорке. По всему городу Оскар ищет информацию, которая должна привести его к разрешению загадки отца. На пути мальчику встретятся разные люди, но их всех объединяет страшная катастрофа, поэтому каждый пытается справиться с собственным горем.
    AppleStoreCatalogID : 195432
    Vendor : Apple:vendor_id:2011-195432
    Video
    ID : 1
    Format : AVC
    Format/Info : Advanced Video Codec
    Format profile : High@L4.1
    Format settings, CABAC : Yes
    Format settings, ReFrames : 10 frames
    Codec ID : avc1
    Codec ID/Info : Advanced Video Coding
    Duration : 2h 9mn
    Bit rate : 1 602 Kbps
    Maximum bit rate : 9 543 Kbps
    Width : 1 024 pixels
    Height : 428 pixels
    Display aspect ratio : 2.40:1
    Frame rate mode : Constant
    Frame rate : 23.976 fps
    Color space : YUV
    Chroma subsampling : 4:2:0
    Bit depth : 8 bits
    Scan type : Progressive
    Bits/(Pixel*Frame) : 0.152
    Stream size : 1.45 GiB (94%)
    Title : Extremely.Loud.Incredibly.Close.2011
    Language : English
    Encoded date : UTC 2014-07-30 20:30:15
    Tagged date : UTC 2014-07-30 20:30:48
    Matrix coefficients : BT.709
    Audio #1
    ID : 2
    Format : AAC
    Format/Info : Advanced Audio Codec
    Format profile : LC
    Codec ID : 40
    Duration : 46mn 9s
    Bit rate mode : Variable
    Bit rate : 128 Kbps
    Maximum bit rate : 198 Kbps
    Channel(s) : 2 channels
    Channel positions : Front: L R
    Sampling rate : 48.0 KHz
    Compression mode : Lossy
    Stream size : 42.2 MiB (3%)
    Title : MVO
    Language : Russian
    Encoded date : UTC 2014-07-30 20:27:37
    Tagged date : UTC 2014-07-30 20:30:48
    Audio #2
    ID : 3
    Format : AAC
    Format/Info : Advanced Audio Codec
    Format profile : LC
    Codec ID : 40
    Duration : 46mn 9s
    Bit rate mode : Variable
    Bit rate : 125 Kbps
    Maximum bit rate : 202 Kbps
    Channel(s) : 2 channels
    Channel positions : Front: L R
    Sampling rate : 48.0 KHz
    Compression mode : Lossy
    Stream size : 41.3 MiB (3%)
    Language : Russian
    Encoded date : UTC 2014-07-30 20:29:21
    Tagged date : UTC 2014-07-30 20:30:48
    Menu
    ID : 4
    Codec ID : text
    Duration : 2h 9mn
    Encoded date : UTC 2014-07-30 20:31:38
    Tagged date : UTC 2014-07-30 20:31:38
    Bit rate mode : CBR
    x264

    x264 info: frame I:1480 Avg QP:14.49 size: 76441
    x264 info: frame P:39940 Avg QP:18.75 size: 22828
    x264 info: frame B:144845 Avg QP:23.06 size: 3664
    x264 info: consecutive B-frames: 3.0% 3.1% 7.9% 15.6% 15.0% 31.0% 9.0% 4.7% 6.9% 1.3% 0.9% 1.0% 0.7%
    x264 info: mb I I16..4: 16.2% 46.3% 37.5%
    x264 info: mb P I16..4: 1.1% 6.1% 1.7% P16..4: 28.1% 32.3% 14.1% 5.1% 1.4% skip: 9.9%
    x264 info: mb B I16..4: 0.1% 0.4% 0.1% B16..8: 31.3% 12.4% 1.8% direct: 2.6% skip:51.2% L0:39.0% L1:45.9% BI:15.2%
    x264 info: 8x8 transform intra:63.1% inter:41.6%
    x264 info: coded y,uvDC,uvAC intra: 80.5% 75.0% 51.4% inter: 12.9% 9.8% 5.6%
    x264 info: i16 v,h,dc,p: 18% 14% 6% 62%
    x264 info: i8 v,h,dc,ddl,ddr,vr,hd,vl,hu: 12% 10% 5% 9% 13% 13% 13% 13% 13%
    x264 info: i4 v,h,dc,ddl,ddr,vr,hd,vl,hu: 15% 11% 6% 9% 13% 12% 12% 10% 11%
    x264 info: i8c dc,h,v,p: 32% 26% 22% 20%
    x264 info: Weighted P-Frames: Y:3.4% UV:1.8%
    x264 info: ref P L0: 62.7% 10.8% 12.5% 4.5% 3.0% 2.2% 1.7% 0.9% 0.8% 0.8% 0.1% 0.0%
    x264 info: ref B L0: 88.0% 6.1% 2.6% 1.1% 0.8% 0.6% 0.5% 0.3% 0.2%
    x264 info: ref B L1: 94.2% 5.8%
    x264 info: kb/s:1601.88
    iTunes tags

    Sort Name: Extremely Loud Incredibly Close
    XID: Apple:vendor_id:2011-195432
    Content ID: 195432
    Copyright: Warner Bros., Scott Rudin Productions, Paramount Pictures
    ScreenWriters: Эрик Рот, Джонатан Сафран Фоер
    Producers: Скотт Рудин, Эли Буш, Селия Д. Костас
    Director: Стивен Долдри
    Cast: Томас Хорн, Макс фон Сюдов, Том Хэнкс, Сандра Буллок, Джеффри Райт, Виола Дэвис, Джон Гудман, Зои Колдуэлл, Дэннис Хирн, Пол Клементовиц // Thomas Horn (Oskar Schell), Tom Hanks (Thomas Schell), Sandra Bullock (Linda Schell), John Goodman (Stan the Doorman), Max von Sydow (The Renter), Dennis Hearn (Minister), Paul Klementowicz (Homeless Man), Julian Tepper (Deli Waiter), Caleb Reynolds (Schoolboy), Zoe Caldwell (Oskar;s Grandmother), Viola Davis (Abby Black), Jeffrey Wright (William Black)
    Rating: PG-13
    Long Deion: Десятилетний Оскар теряет отца в день атаки на башни-близнецы в Нью-Йорке. По всему городу Оскар ищет информацию, которая должна привести его к разрешению загадки отца. На пути мальчику встретятся разные люди, но их всех объединяет страшная катастрофа, поэтому каждый пытается справиться с собственным горем.
    Deion: Десятилетний Оскар теряет отца в день атаки на башни-близнецы в Нью-Йорке. По всему городу Оскар ищет информацию, которая должна привести его к разрешению загадки отца. На пути мальчику встретятся разные люди, но их всех объединяет катастрофа.
    Release Date: 2011-12-25T08:00:00Z
    Genre: Drama
    Artist: Stephen Daldry
    Name: Жутко громко и запредельно близко
    Screenshots



    Залил: gekka
    Размер скачиваемого торрента: 1.54 GB (1653228150 Bytes)

    Жутко громко и запредельно близко/Extremely Loud amp Incredibly Close (2011) BDRip-AVC | iPad | P скачать через торрент бесплатно
    загрузка...
    Рейтинг →
     (голосов: 1, оценка 3/5, голосовать можно 1 раз )

    Другие торренты по теме:

  • Жутко громко и запредельно близко / Extremely Loud Incredibly Close (2011) BDRip-AVC от ExKinoRay | Лицензия
  • Влияние - Жутко громко и запредельно близко (2013) MP3 скачать через торрент бесплатно
  • Жутко громко и запредельно близко / Extremely Loud Incredibly Close (2011) BDRip от HQCLUB | Лицензия
  • Жутко громко и запредельно близко / Extremely Loud Incredibly Close (2011) BDRip 720p от Leonardo and Scarabey | Лицензия


    • Комментарии (0):

      Информация

      Информация

        Посетители, находящиеся в группе Гости, не могут оставлять комментарии в данной новости.

        ↓ Меню



        ↓ Опрос

        А Вы добавили сайт в закладки?
        Да
        Не


        Top 10 за месяц (Фильмы)