.
Авторизация | Регистрация
Хочешь лучшие торренты? Добавь свой email!
Добавить
» » Ниндзя Апокалипсиса / Ninja Apocalypse (2014) BDRip 720p | L1 скачать через торрент бесплатно




    Ниндзя Апокалипсиса / Ninja Apocalypse (2014) BDRip 720p | L1 скачать через торрент бесплатно

    Опубликовал: Админ | Дата: 27-02-2015, 11:10 | Просмотров: 147


    Детально о кино
    Русское название: Ниндзя Апокалипсиса
    Русское название в мировом прокате: Ninja Apocalypse
    Создали в: 2014
    Категория жанра: фантастика, фэнтези, боевик
    Главный режиссер: Ллойд Ли Барнетт
    Актеры:Кристиан Оливер, Лес Брандт, Кэри-Хироюки Тагава, Эрни Рейес мл., Айзек С. Синглтон мл., Каиви Лайман, Уэст Лианг, Тара Мэкен, Антуанетта Никпрелаж, Элвин Синг
    Сюжет фильма:После апокалипсиса человечество оказалось откинутым во времена средневековья. Кейдж - представитель одного из боевых кланов, враждующих между собой, обвиняется в убийстве Мастера своего клана. Пытаясь спастись и доказать свою невиновность, он с друзьями сбегает. Но тайный коварный враг заманивают их в ловушку, в которой их поджидают полчища зомби.

    Снималось в: США
    Время просмотра: 01:23:24
    Тип перевода:Любительское (одноголосое) den904
    Файл
    Тип видео: MKV
    Качество фильма: BDRip 720p Рип с Blu-Ray
    Информация о видео: 6006 kb/s, 1280x536
    Информация о звуке: Russian: AC3, 192 kb/s (2 ch)/Russian: AC3, 448 kb/s (6 ch)
    Субтитры:English
    MI

    Format : Matroska
    Format version : Version 4/Version 2
    File size : 3.87 GiB
    Duration : 1h 23mn
    Overall bit rate : 6 643 Kbps
    Movie name : Rip by 03nazar03
    Encoded date : UTC 2014-07-28 07:57:00
    Writing application : mkvmerge v6.1.0 (;Old Devil;) built on Mar 4 2013 09:10:42
    Writing library : libebml v1.3.0 + libmatroska v1.4.0
    DURATION : 01:20:16.937000000
    NUMBER_OF_FRAMES : 610
    NUMBER_OF_BYTES : 16078
    _STATISTICS_WRITING_APP : mkvmerge v7.0.0 (;Where We Going;) 32bit built on Jun 9 2014 15:08:34
    _STATISTICS_WRITING_DATE_UTC : 2014-07-27 15:19:19
    _STATISTICS_TAGS : BPS DURATION NUMBER_OF_FRAMES NUMBER_OF_BYTES
    Video
    ID : 1
    Format : AVC
    Format/Info : Advanced Video Codec
    Format profile : High@L4.1
    Format settings, CABAC : Yes
    Format settings, ReFrames : 11 frames
    Codec ID : V_MPEG4/ISO/AVC
    Duration : 1h 23mn
    Bit rate : 6 006 Kbps
    Width : 1 280 pixels
    Height : 536 pixels
    Display aspect ratio : 2.40:1
    Frame rate : 23.976 fps
    Color space : YUV
    Chroma subsampling : 4:2:0
    Bit depth : 8 bits
    Scan type : Progressive
    Bits/(Pixel*Frame) : 0.365
    Stream size : 3.42 GiB (88%)
    Writing library : x264 core 130 r2273 b3065e6
    Encoding settings : cabac=1/ref=11/deblock=1:-3:-3/analyse=0x3:0x133/me=umh/subme=11/psy=1/psy_rd=1.00:0.20/mixed_ref=1/me_range=32/chroma_me=1/trellis=2/8x8dct=1/cqm=0/deadzone=21,11/fast_pskip=0/chroma_qp_offset=-3/threads=12/lookahead_threads=2/sliced_threads=0/nr=0/decimate=0/interlaced=0/bluray_compat=0/constrained_intra=0/bframes=10/b_pyramid=2/b_adapt=2/b_bias=0/direct=3/weightb=1/open_gop=0/weightp=2/keyint=250/keyint_min=23/scenecut=40/intra_refresh=0/rc_lookahead=60/rc=2pass/mbtree=1/bitrate=6006/ratetol=1.0/qcomp=0.60/qpmin=0/qpmax=69/qpstep=4/cplxblur=20.0/qblur=0.5/ip_ratio=1.40/aq=1:1.00
    Language : English
    Default : Yes
    Forced : No
    Audio #1
    ID : 2
    Format : AC-3
    Format/Info : Audio Coding 3
    Mode extension : CM (complete main)
    Format settings, Endianness : Big
    Codec ID : A_AC3
    Duration : 1h 23mn
    Bit rate mode : Constant
    Bit rate : 192 Kbps
    Channel(s) : 2 channels
    Channel positions : Front: L R
    Sampling rate : 48.0 KHz
    Bit depth : 16 bits
    Compression mode : Lossy
    Stream size : 115 MiB (3%)
    Language : Russian
    Default : Yes
    Forced : No
    Audio #2
    ID : 3
    Format : AC-3
    Format/Info : Audio Coding 3
    Mode extension : CM (complete main)
    Format settings, Endianness : Big
    Codec ID : A_AC3
    Duration : 1h 23mn
    Bit rate mode : Constant
    Bit rate : 448 Kbps
    Channel(s) : 6 channels
    Channel positions : Front: L C R, Side: L R, LFE
    Sampling rate : 48.0 KHz
    Bit depth : 16 bits
    Compression mode : Lossy
    Stream size : 267 MiB (7%)
    Language : English
    Default : No
    Forced : No
    Text
    ID : 4
    Format : UTF-8
    Codec ID : S_TEXT/UTF8
    Codec ID/Info : UTF-8 Plain Text
    Language : English
    Default : No
    Forced : No
    Скриншоты для ознакомления

    Размер скачиваемого торрента: 3.87 GB (4155498618 Bytes)

    Ниндзя Апокалипсиса/Ninja Apocalypse (2014) BDRip 720p | L1 скачать через торрент бесплатно
    загрузка...
    Рейтинг →
     (голосов: 1, оценка 5/5, голосовать можно 1 раз )

    Другие торренты по теме:

  • Русский ниндзя (2017) WEBRip 720p
  • Русский ниндзя (2017) WEBRip от Files-х
  • Черепашки-ниндзя / Черепашки Мутанты Ниндзя / Nickelodeon Teenage Mutant Ninja Turtles (2012) WEB-DLRip от Youtracker
  • Роботы ниндзя / Ниндзя-воин Тобикагэ / Ninja Senshi Tobikage / Ninja Warrior Tobikage (1985-1986) DVDRip
  • Черепашки-ниндзя / Черепашки Мутанты Ниндзя / Teenage Mutant Ninja Turtles (2013) WEB-DLRip скачать через торрент бесплатно
  • Черепашки-ниндзя / Черепашки Мутанты Ниндзя / Teenage Mutant Ninja Turtles (2013) WEB-DLRip скачать через торрент бесплатно
  • Черепашки-ниндзя / Черепашки Мутанты Ниндзя / Teenage Mutant Ninja Turtles (2013-2014) WEB-DLRip
  • Гвоздев С.А. - Ниндзя. Секреты тайного учения: Учебно-методическое пособие (2006) PDF


    • Комментарии (0):

      Информация

      Информация

        Посетители, находящиеся в группе Гости, не могут оставлять комментарии в данной новости.

        ↓ Меню



        ↓ Опрос

        А Вы добавили сайт в закладки?
        Да
        Не


        Top 10 за месяц (Фильмы)