.
Авторизация | Регистрация
Хочешь лучшие торренты? Добавь свой email!
Добавить
» » Призрак дома на холме / The Haunting (1999) HDRip от Leon-masl P скачать торрент бесплатно




    Призрак дома на холме / The Haunting (1999) HDRip от Leon-masl P скачать торрент бесплатно

    Опубликовал: Админ | Дата: 27-02-2015, 11:10 | Просмотров: 170


    Детально о кино
    Русское название:Призрак дома на холме
    Русское название в мировом прокате:The Haunting
    Создали в:1999
    Категория жанра:Мистика, ужасы, триллер
    Главный режиссер:Ян де Бонт
    Актеры:Кэтрин Зета-Джонс,Лиам Нисон,Лили Тейлор,Оуэн Уилсон,Вирджиния Мэдсен,Брюс Дерн, Мэриан Селдерс, Аликс Коромзай, Тодд Филд, Майкл Кэвано, Чарльз Ганнинг, М.С. Гэйни, Мэри МакНил, Хэдли Юар
    Сюжет фильма:
    Жуткие легенды ходят вокруг огромного и зловещего особняка, известного как Дом на холме. Это мрачное и величественное строение, некогда принадлежавшее богатейшему текстильному магнату Хью Крэйну, вот уже больше века стоит пустым и считается проклятым местом. Но именно его для своих экспериментов выбирает специалист по изучению сна доктор Марроу. Группа из четырех страдающих бессоницей молодых людей, которую пригласил доктор Марроу, должна будет провести в жутком доме несколько дней и ночей. Однако никто из участников этого странного проекта не предполагал, с каким чудовищным кошмаром им придется столкнуться. Экранизация произведения Ширли Джексона.

    Снималось в:США
    Киностудия:DreamWorks SKG, Roth-Arnold Productions
    Время просмотра:01:52:21
    Перевод текста:Профессиональный многоголосый

    Файл
    Кодек для видео:XviD
    Качество фильма:HDRip
    Информация о видео:720x304, 23.976 fps, 1662 kbps
    Информация о звуке:AC3, 2 ch, 48.0 khz, 192 kbps
    MI
    Общее
    Полное имя : Prizrak.Doma.Na.Holme.1999.HDRip.avi
    Формат : AVI
    Формат/Информация : Audio Video Interleave
    Размер файла : 1,46 Гбайт
    Продолжительность : 1 ч. 52 м.
    Общий поток : 1864 Кбит/сек
    Программа кодирования : VirtualDubMod 1.5.10.3 | www.virtualdub-fr.org || (build 2550/release)
    Библиотека кодирования : VirtualDubMod build 2550/release
    Видео
    Идентификатор : 0
    Формат : MPEG-4 Visual
    Профиль формата : Advanced Simple@L5
    Параметр BVOP формата : 1
    Параметр QPel формата : Нет
    Параметр GMC формата : Без точки перехода
    Параметр матрицы формата : Выборочная
    Идентификатор кодека : XVID
    Идентификатор кодека/Подсказка : XviD
    Продолжительность : 1 ч. 52 м.
    Битрейт : 1662 Кбит/сек
    Ширина : 720 пикс.
    Высота : 304 пикс.
    Соотношение сторон : 2,35:1
    Частота кадров : 23,976 кадр/сек
    Цветовое пространство : YUV
    Подвыборка цветности : 4:2:0
    Битовая глубина : 8 бит
    Тип развёртки : Прогрессивная
    Метод сжатия : С потерями
    Бит/(Пиксели*Кадры) : 0.317
    Размер потока : 1,30 Гбайт (89%)
    Библиотека кодирования : XviD 73
    Аудио
    Идентификатор : 1
    Формат : AC-3
    Формат/Информация : Audio Coding 3
    Расширение режима : CM (complete main)
    Идентификатор кодека : 2000
    Продолжительность : 1 ч. 52 м.
    Вид битрейта : Постоянный
    Битрейт : 192 Кбит/сек
    Канал(ы) : 2 канала(ов)
    Расположение каналов : Front: L R
    Частота : 48,0 КГц
    Битовая глубина : 16 бит
    Метод сжатия : С потерями
    Размер потока : 154 Мбайт (10%)
    Выравнивание : Разделение по промежуткам
    Продолжительность промежутка : 42 мс. (1,00 видеокадр)
    Время предзагрузки промежутка : 500 ms
    Скриншоты для ознакомления

    Релиз подготовил:Leon-masl
    Залил: leon-masl
    Размер скачиваемого торрента: 1.46 GB (1570697216 Bytes)

    Призрак дома на холме/The Haunting (1999) HDRip от Leon-masl P торрент скачать бесплатно
    загрузка...
    Рейтинг →
     (голосов: 1, оценка 4/5, голосовать можно 1 раз )

    Другие торренты по теме:

  • Призрак дома на холме / The Haunting (1999) DTheaterRip (AVC) от 0ptimus | P
  • Призрак дома Редклифф / Алтарь / The haunting of Radcliffe house / Altar (2014) WEB-DLRip | L2 скачать через торрент бесплатно
  • Призрак дома Бриар / Невысказанный / The Haunting of Briar House / Unspoken (2016) HDRip | L1
  • Призрак дома Бриар / The Unspoken (2015) WEB-DLRip от MegaPeer | iTunes
  • Призрак дома Бриар / The Unspoken (2015) WEB-DL 1080p | iTunes
  • Ширли Джексон - Призрак дома на холме (2017) MP3


    • Комментарии (0):

      Информация

      Информация

        Посетители, находящиеся в группе Гости, не могут оставлять комментарии в данной новости.

        ↓ Меню



        ↓ Опрос

        А Вы добавили сайт в закладки?
        Да
        Не


        Top 10 за месяц (Фильмы)