.
Авторизация | Регистрация
Хочешь лучшие торренты? Добавь свой email!
Добавить
» » Дьявольское искусство 2 / Long khon / Art of the Devil 2 (2005) BDRip by msltel | A скачать через торрент бесплатно




    Дьявольское искусство 2 / Long khon / Art of the Devil 2 (2005) BDRip by msltel | A скачать через торрент бесплатно

    Опубликовал: Админ | Дата: 27-02-2015, 11:10 | Просмотров: 150


    Русское название:Дьявольское искусство 2
    Русское название в мировом прокате:Long khon/Art of the Devil 2
    Создали в:2005
    Категория жанра:Ужасы, фэнтези, детектив
    Снималось в:Таиланд, Five Star Production Co. Ltd.
    Главный режиссер:Паситх Буранаджан, Конгкиат Кхомсири, Исара Нади, ...
    Актеры:Напакпапха Накпраситте, Акарин Сивапорнпитак, Чанида Сурякомпон, Намо Тункомнерд, Паварит Вонгпанич
    Сюжет фильма:Компания подростков после того как один парень надругался над их подругой, решила отомстить, прибегнув к помощи колдуна. Негодяй получил по заслугам, но у него нашлась обожательница-ведьма, которая, в свою очередь, решила прибегнуть к мести.
    Качество фильма:BDRip
    Размер скачиваемого торрента:2.13 ГБ
    Время просмотра:01:41:25
    Информация о видео:XviD, 1903 Кбит/с, 720x400
    Информация о звуке 1:русский, 48 kHz, AC3, 6 ch, 448 kbps avg, Авторский, Сергей Сергеев (Russianguy27)
    Информация о звуке 2:русский, 48 kHz, AC3, 2 ch, 192 kbps avg, Авторский, Евгений Гранкин
    Внешние файлы
    Информация о звуке:тайский, 48 kHz, AC3, 6 ch, 448 kbps avg, Оригинал
    Субтитры:английские
    Исходник:FREEDONOR (HDtracker)
    Сравнение с исходником

    MediaInfo
    Общее
    Полное имя : D:VideoDjavolskoe iskusstvo 2.2005.BDRipDjavolskoe iskusstvo 2.2005.BDRip.avi
    Формат : AVI
    Формат/Информация : Audio Video Interleave
    Размер файла : 1,81 Гбайт
    Продолжительность : 1 ч. 41 м.
    Общий поток : 2557 Кбит/сек
    Программа кодирования : VirtualDubMod 1.5.10.2 (build 2540/release)
    Библиотека кодирования : VirtualDubMod build 2540/release
    Видео
    Идентификатор : 0
    Формат : MPEG-4 Visual
    Профиль формата : Advanced Simple@L5
    Параметр BVOP формата : 1
    Параметр QPel формата : Нет
    Параметр GMC формата : Без точки перехода
    Параметр матрицы формата : Default (H.263)
    Режим смешивания : Сжатый битовый поток
    Идентификатор кодека : XVID
    Идентификатор кодека/Подсказка : XviD
    Продолжительность : 1 ч. 41 м.
    Битрейт : 1903 Кбит/сек
    Ширина : 720 пикселей
    Высота : 400 пикселей
    Соотношение сторон : 16:9
    Частота кадров : 23,976 кадра/сек
    Цветовое пространство : YUV
    Субдискретизация насыщенности : 4:2:0
    Битовая глубина : 8 бит
    Тип развёртки : Прогрессивная
    Метод сжатия : С потерями
    Бит/(Пиксели*Кадры) : 0.276
    Размер потока : 1,35 Гбайт (74%)
    Библиотека кодирования : XviD 1.2.1 (UTC 2008-12-04)
    Аудио #1
    Идентификатор : 1
    Формат : AC-3
    Формат/Информация : Audio Coding 3
    Расширение режима : CM (complete main)
    Параметр Endianness формата : Big
    Идентификатор кодека : 2000
    Продолжительность : 1 ч. 41 м.
    Вид битрейта : Постоянный
    Битрейт : 448 Кбит/сек
    Каналы : 6 каналов
    Расположение каналов : Front: L C R, Side: L R, LFE
    Частота : 48,0 КГц
    Битовая глубина : 16 бит
    Метод сжатия : С потерями
    Размер потока : 325 Мбайт (18%)
    Выравнивание : Разделение по промежуткам
    Продолжительность промежутка : 42 мс. (1,00 видеокадр)
    Время предзагрузки промежутка : 500 мс.
    Аудио #2
    Идентификатор : 2
    Формат : AC-3
    Формат/Информация : Audio Coding 3
    Расширение режима : CM (complete main)
    Параметр Endianness формата : Big
    Идентификатор кодека : 2000
    Продолжительность : 1 ч. 41 м.
    Вид битрейта : Постоянный
    Битрейт : 192 Кбит/сек
    Каналы : 2 канала
    Расположение каналов : Front: L R
    Частота : 48,0 КГц
    Битовая глубина : 16 бит
    Метод сжатия : С потерями
    Размер потока : 139 Мбайт (8%)
    Выравнивание : Разделение по промежуткам
    Продолжительность промежутка : 42 мс. (1,00 видеокадр)
    Время предзагрузки промежутка : 500 мс.
    Общее
    Полное имя : D:VideoDjavolskoe iskusstvo 2.2005.BDRipDjavolskoe iskusstvo 2.2005.eng.srt
    Размер файла : 120 Кбайт
    Общее
    Полное имя : D:VideoDjavolskoe iskusstvo 2.2005.BDRipDjavolskoe iskusstvo 2.2005.Original.thai.ac3
    Формат : AC-3
    Формат/Информация : Audio Coding 3
    Размер файла : 325 Мбайт
    Продолжительность : 1 ч. 41 м.
    Режим общего битрейта : Постоянный
    Общий поток : 448 Кбит/сек
    Аудио
    Формат : AC-3
    Формат/Информация : Audio Coding 3
    Расширение режима : CM (complete main)
    Параметр Endianness формата : Big
    Продолжительность : 1 ч. 41 м.
    Вид битрейта : Постоянный
    Битрейт : 448 Кбит/сек
    Каналы : 6 каналов
    Расположение каналов : Front: L C R, Side: L R, LFE
    Частота : 48,0 КГц
    Битовая глубина : 16 бит
    Метод сжатия : С потерями
    Размер потока : 325 Мбайт (100%)
    Скриншоты для ознакомления


    Залил: msltel
    Размер скачиваемого торрента: 2.13 GB (2286107212 Bytes)

    Дьявольское искусство 2/Long khon/Art of the Devil 2 (2005) BDRip by msltel | A скачать через торрент бесплатно
    загрузка...
    Рейтинг →
     (голосов: 1, оценка 3/5, голосовать можно 1 раз )

    Другие торренты по теме:

  • Дьявольское логово / Devils Den (2006) DVDRip | Р2
  • Дьявольское наследство / Herencia diablica (1994) VHSRip от Cmert | L1 скачать через торрент бесплатно


    • Комментарии (0):

      Информация

      Информация

        Посетители, находящиеся в группе Гости, не могут оставлять комментарии в данной новости.

        ↓ Меню



        ↓ Опрос

        А Вы добавили сайт в закладки?
        Да
        Не


        Top 10 за месяц (Фильмы)