.
Авторизация | Регистрация
Хочешь лучшие торренты? Добавь свой email!
Добавить
» » Все вещи для всех людей / Смертельная игра / All Things to All Men / The Deadly Game (2013) BDRip 720p | L1 скачать через торрент бесплатно




    Все вещи для всех людей / Смертельная игра / All Things to All Men / The Deadly Game (2013) BDRip 720p | L1 скачать через торрент бесплатно

    Опубликовал: Админ | Дата: 27-02-2015, 11:10 | Просмотров: 187


    Детально о кино
    Русское название: Все вещи для всех людей
    Русское название в мировом прокате: All Things to All Men
    Создали в: 2013
    Категория жанра: триллер, криминал
    Главный режиссер: Джордж Иссак
    Актеры:Тоби Стивенс, Руфус Сьюэлл, Марк Бэдхэм, Гэбриел Бирн, Джил Дарнелл, Джеймс Фрейн, Лео Грегори, Пьер Масколо, Теренс Мэйнард
    Сюжет фильма:Криминальный триллер об игре в кошки-мышки, которую затеяли на улицах современного Лондона полицейский босс, криминальный авторитет Джозеф Корсо и преступник по имени Райли. Там где замешаны большие деньги нет, и не может быть места взаимному доверию и дружбе. Вот и главный герой фильма, идя на преступление, не может доверять даже своим сообщникам. На него открывается настоящая охота и самое страшное, что противостоять злодеям он должен в одиночку. Но судьба хранит уверенных в себе людей, и ему удается, преодолев личные моральные устои справиться с врагами. Устраняя одну преграду за другой со своего пути, он движется к заветной цели и именно такая целеустремленность позволяет ему сохранить жизнь, а возможно и приобрести кое-что еще.

    Снималось в: Великобритания
    Время просмотра: 01:25:02
    Перевод текста:Любительский (одноголосый) R.A.I.M
    Файл
    Тип видео: MKV
    Качество фильма: BDRip 720p
    Информация о видео: 4391 kb/s, 1280x544
    Информация о звуке: Russian: MP3, 128 kb/s (2 ch)/English: DTS, 1510 kb/s (6 ch)


    MI

    Format : Matroska
    Format version : Version 4/Version 2
    File size : 3.57 GiB
    Duration : 1h 25mn
    Overall bit rate : 6 018 Kbps
    Movie name : All.Things.to.All.Men.2013.BluRay.720p.DTS.x264-CHD
    Encoded date : UTC 2014-07-24 13:45:35
    Writing application : mkvmerge v6.7.0 (;Back to the Ground;) 32bit built on Jan 8 2014 15:03:17
    Writing library : libebml v1.3.0 + libmatroska v1.4.1
    Video
    ID : 1
    Format : AVC
    Format/Info : Advanced Video Codec
    Format profile : High@L4.1
    Format settings, CABAC : Yes
    Format settings, ReFrames : 11 frames
    Codec ID : V_MPEG4/ISO/AVC
    Duration : 1h 25mn
    Bit rate : 4 391 Kbps
    Width : 1 280 pixels
    Height : 544 pixels
    Display aspect ratio : 2.35:1
    Frame rate : 23.976 fps
    Color space : YUV
    Chroma subsampling : 4:2:0
    Bit depth : 8 bits
    Scan type : Progressive
    Bits/(Pixel*Frame) : 0.263
    Stream size : 2.53 GiB (71%)
    Title : Anonymous@CHD
    Writing library : x264 core 138 r2356 a1d3d17
    Encoding settings : cabac=1/ref=11/deblock=1:-3:-3/analyse=0x3:0x113/me=umh/subme=10/psy=1/psy_rd=1.00:0.05/mixed_ref=1/me_range=32/chroma_me=1/trellis=2/8x8dct=1/cqm=0/deadzone=21,11/fast_pskip=0/chroma_qp_offset=-2/threads=18/lookahead_threads=1/sliced_threads=0/nr=0/decimate=1/interlaced=0/bluray_compat=0/constrained_intra=0/bframes=4/b_pyramid=2/b_adapt=2/b_bias=0/direct=3/weightb=1/open_gop=0/weightp=2/keyint=250/keyint_min=23/scenecut=40/intra_refresh=0/rc=2pass/mbtree=0/bitrate=4391/ratetol=1.0/qcomp=0.70/qpmin=0/qpmax=69/qpstep=4/cplxblur=20.0/qblur=0.5/ip_ratio=1.40/pb_ratio=1.30/aq=2:0.90
    Language : English
    Default : Yes
    Forced : Yes
    Audio #1
    ID : 2
    Format : MPEG Audio
    Format version : Version 1
    Format profile : Layer 3
    Mode : Joint stereo
    Codec ID : A_MPEG/L3
    Codec ID/Hint : MP3
    Duration : 1h 25mn
    Bit rate mode : Constant
    Bit rate : 128 Kbps
    Channel(s) : 2 channels
    Sampling rate : 48.0 KHz
    Compression mode : Lossy
    Stream size : 77.9 MiB (2%)
    Writing library : LAME3.97
    Encoding settings : -m j -V 4 -q 3 -lowpass 17 -b 128
    Language : Russian
    Default : Yes
    Forced : Yes
    Audio #2
    ID : 3
    Format : DTS
    Format/Info : Digital Theater Systems
    Codec ID : A_DTS
    Duration : 1h 25mn
    Bit rate mode : Constant
    Bit rate : 1 510 Kbps
    Channel(s) : 6 channels
    Channel positions : Front: L C R, Side: L R, LFE
    Sampling rate : 48.0 KHz
    Bit depth : 24 bits
    Compression mode : Lossy
    Stream size : 918 MiB (25%)
    Title : English DTS 5.1 1509Kbps
    Language : English
    Default : No
    Forced : No
    Menu
    00:00:00.000 : en:00:00:00.000
    00:05:40.090 : en:00:05:40.090
    00:11:38.781 : en:00:11:38.781
    00:15:45.027 : en:00:15:45.027
    00:20:17.174 : en:00:20:17.174
    00:25:21.520 : en:00:25:21.520
    00:29:31.728 : en:00:29:31.728
    00:36:23.390 : en:00:36:23.390
    00:42:04.564 : en:00:42:04.564
    00:47:42.777 : en:00:47:42.777
    00:50:18.182 : en:00:50:18.182
    00:53:57.568 : en:00:53:57.568
    01:00:24.454 : en:01:00:24.454
    01:04:50.220 : en:01:04:50.220
    01:08:05.248 : en:01:08:05.248
    01:11:26.532 : en:01:11:26.532
    Скриншоты для ознакомления

    Размер скачиваемого торрента: 3.57 GB (3838383203 Bytes)

    Все вещи для всех людей/Смертельная игра/All Things to All Men/The Deadly Game (2013) BDRip 720p | L1 скачать через торрент бесплатно
    загрузка...
    Рейтинг →
     (голосов: 1, оценка 5/5, голосовать можно 1 раз )

    Другие торренты по теме:

  • Сборник - Русское радио. Все будет хорошо Осенний №10 (2017) MP3
  • Подозреваются все (2017) WEBRip от Files-х
  • Рени Найт - Все совпадения случайны (2017) MP3
  • Мангака и все-все-все / Mangaka-san to Assistant-san to The Animation (2014) WEBRip 720p | AniFilm скачать через торрент бесплатно
  • Мангака и все-все-все / Mangaka-san to Assistant-san to The Animation (2014) HDTVRip 720p | LE-Production скачать через торрент бесплатно
  • Винни-Пух и все-все-все скачать через торрент бесплатно
  • Loc Dog Tony VA - Все знают все (2013) MP3 от AGR - Generalfilm
  • Все будет вкусно! / Все буде смачно! (2014-2015) SATRip


    • Комментарии (0):

      Информация

      Информация

        Посетители, находящиеся в группе Гости, не могут оставлять комментарии в данной новости.

        ↓ Меню



        ↓ Опрос

        А Вы добавили сайт в закладки?
        Да
        Не


        Top 10 за месяц (Фильмы)