.
Авторизация | Регистрация
Хочешь лучшие торренты? Добавь свой email!
Добавить
» » Сердце льва / Leijonasydan / Heart of a lion (2013) DVB от MediaClub | P скачать через торрент бесплатно




    Сердце льва / Leijonasydan / Heart of a lion (2013) DVB от MediaClub | P скачать через торрент бесплатно

    Опубликовал: Админ | Дата: 27-02-2015, 11:10 | Просмотров: 154


    Детально о кино
    Русское название:Сердце льва
    Русское название в мировом прокате:Leijonasydan/Heart of a lion
    Создали в:2013
    Категория жанра:Драма, мелодрама
    Главный режиссер:Доме Карукоски
    Актеры:Петер Францен, Лаура Бирн, Яспер Пяякконен, Памела Тола, Юсси Ватанен, Деограсиас Масоми, Микко Неувонен, Лаура Хеймо, Тимо Лавикайнен, Юха Пурсиайнен
    Сюжет фильма:
    Неонацист Теппо пытается наладить свою беспокойную жизнь, задумывается о работе и намерен принять все, так как есть, лишь только бы уйти от прошлой жизни. Ему встречается молодая привлекательная девушка с ярко светлыми волосами, её зовут Сари. Он начинает с ней отношения, которые перерастают в жаркую, страстную любовь. Но внезапно она признаётся ему... У неё есть сын афроамериканец. Судя по суждениям, для него это был крах, только вроде бы налаживаемой жизни. Он долго не может найти себе места, но в итоге принимает достойное мужчины решение. Быть для мальчишки отцом. Но вот мальчик сообразил, он знал взгляды зрелого мужчины и соответственно не хотел жить вместе с неонацистом.

    Снималось в:Финляндия, Швеция
    Киностудия:Film i V?st, Helsinki Filmi Oy, Suomen Elokuvas??ti?
    Время просмотра:01:34:41
    Перевод текста:Профессиональный многоголосый
    Файл
    Качество фильма:DVB
    Информация о видео:MPEG-2, 2236 Кбит/с, 720x576@1024x576
    Информация о звуке:Русский (АС3, 6 ch, 384 Кбит/с)/(MP2, 2 ch, 192 Кбит/с)
    Семпл
    Скриншоты для ознакомления

    MI
    Общее
    Идентификатор : 1 (0x1)
    Полное имя : Serdce.lva.2013.DVB.MediaClub.ts
    Формат : MPEG-TS
    Размер файла : 1,96 Гбайт
    Продолжительность : 1 ч. 34 м.
    Режим общего битрейта : Переменный
    Общий поток : 2964 Кбит/сек
    Видео
    Идентификатор : 322 (0x142)
    Идентификатор меню : 10103 (0x2777)
    Формат : MPEG Video
    Версия формата : Version 2
    Профиль формата : Main@Main
    Параметр BVOP формата : Да
    Параметр матрицы формата : Выборочная
    Параметр GOP формата : Variable
    Идентификатор кодека : 2
    Продолжительность : 1 ч. 34 м.
    Вид битрейта : Переменный
    Битрейт : 2236 Кбит/сек
    Максимальный битрейт : 15,0 Мбит/сек
    Ширина : 720 пикселей
    Высота : 576 пикселей
    Соотношение сторон : 16:9
    Частота кадров : 25,000 кадров/сек
    Стандарт вещания : PAL
    Цветовое пространство : YUV
    Субдискретизация насыщенности : 4:2:0
    Битовая глубина : 8 бит
    Тип развёртки : Чересстрочная
    Порядок развёртки : Верхнее поле первое
    Метод сжатия : С потерями
    Бит/(Пиксели*Кадры) : 0.216
    Размер потока : 1,48 Гбайт (75%)
    Аудио #1
    Идентификатор : 405 (0x195)
    Идентификатор меню : 10103 (0x2777)
    Формат : MPEG Audio
    Версия формата : Version 1
    Профиль формата : Layer 2
    Идентификатор кодека : 4
    Продолжительность : 1 ч. 34 м.
    Вид битрейта : Постоянный
    Битрейт : 192 Кбит/сек
    Каналы : 2 канала
    Частота : 48,0 КГц
    Метод сжатия : С потерями
    Задержка видео : -904 мс.
    Размер потока : 130 Мбайт (6%)
    Язык : Russian
    Язык, дополнительно : Clean effects
    Аудио #2
    Идентификатор : 435 (0x1B3)
    Идентификатор меню : 10103 (0x2777)
    Формат : AC-3
    Формат/Информация : Audio Coding 3
    Расширение режима : CM (complete main)
    Параметр Endianness формата : Big
    Идентификатор кодека : 6
    Продолжительность : 1 ч. 34 м.
    Вид битрейта : Постоянный
    Битрейт : 384 Кбит/сек
    Каналы : 6 каналов
    Расположение каналов : Front: L C R, Side: L R, LFE
    Частота : 48,0 КГц
    Битовая глубина : 16 бит
    Метод сжатия : С потерями
    Задержка видео : -872 мс.
    Размер потока : 260 Мбайт (13%)
    Язык : Russian
    Меню
    Идентификатор : 102 (0x66)
    Идентификатор меню : 10103 (0x2777)
    Продолжительность : 1 ч. 34 м.
    Список : 322 (0x142) (MPEG Video)/405 (0x195) (MPEG Audio, Russian)/435 (0x1B3) (AC-3, Russian)
    Язык :/Russian/Russian

    Релиз подготовил:
    Залил: poja
    Размер скачиваемого торрента: 1.96 GB (2105485508 Bytes)

    Сердце льва/Leijonasydan/Heart of a lion (2013) DVB от MediaClub | P скачать через торрент бесплатно
    загрузка...
    Рейтинг →
     (голосов: 1, оценка 5/5, голосовать можно 1 раз )

    Другие торренты по теме:

  • Сердце льва / Heart of A Lion / Leijonasydn (2013) BDRip 1080p от CINEMANIA | L1 скачать через торрент бесплатно
  • Сердце льва / Heart of A Lion / Leijonasydn (2013) BDRip 720p от CINEMANIA | L1 скачать через торрент бесплатно
  • Сердце льва / Leijonasydn / Heart of A Lion (2013) HDRip скачать через торрент бесплатно
  • Сердце льва / Leijonasydan / Heart of a lion (2013) HDRip от Scarabey
  • Сердце льва / Leijonasydan / Heart of a lion (2013) HDRip от Scarabey
  • Сердце льва / Heart of A Lion / Leijonasydn (2013) HDRip | НТВ+ скачать через торрент бесплатно


    • Комментарии (0):

      Информация

      Информация

        Посетители, находящиеся в группе Гости, не могут оставлять комментарии в данной новости.

        ↓ Меню



        ↓ Опрос

        А Вы добавили сайт в закладки?
        Да
        Не


        Top 10 за месяц (Фильмы)