.
Авторизация | Регистрация
Хочешь лучшие торренты? Добавь свой email!
Добавить
» » Осиное гнездо / Nid de guepes / The Nest (2002) BDRip 1080p by msltel | D, A скачать через торрент бесплатно




    Осиное гнездо / Nid de guepes / The Nest (2002) BDRip 1080p by msltel | D, A скачать через торрент бесплатно

    Опубликовал: Админ | Дата: 27-02-2015, 11:10 | Просмотров: 174


    Русское название:Осиное гнездо
    Русское название в мировом прокате:Nid de guepes/The Nest
    Создали в:2002
    Категория жанра:Боевик, триллер, криминал
    Снималось в:Франция, Canal+, Carrere Groupe, Cinemane Films, Cofimage 12, Embellie Productions, France 2 Cinema, Gimages 4, Natexis Banques Populaires Images 2, Pathe Image Production, Pendrake Films, Procirep
    Главный режиссер:Флоран Эмилио Сири
    Актеры:Сами Насери, Бенуа Мажимель, Надя Фарес, Паскаль Грегори, Сами Буажила, Рихард Заммель, Валерио Мастандреа, Марсаль Одон
    Сюжет фильма:Офицер спецназа тридцатилетняя Элен Лабори получает задание отконвоировать в здание суда знаменитого албанского мафиози Абедина Нексера, обвиняемого в распространении проституции и создании широкой европейской сети домов терпимости. Лабори понимает, что мафия попытается спасти своего лидера. Так и случилось: во время операции вооруженные люди Нексера нападают на Лабори и её суперагентов. Изматывая полицейских бешеной погоней, бандиты загоняют их в ловушку — огромный промышленный склад. Смертельная игра в кошки-мышки начинается...
    Качество фильма:BDRip 1080p
    Размер скачиваемого торрента:10.24 ГБ
    Время просмотра:01:47:16
    Информация о видео:MPEG-4 AVC, 9521 Кбит/с, 1920x818
    Информация о звуке 1:русский, 48 kHz, AC3, 6 ch, 448 kbps avg, Дублированный
    Информация о звуке 2:русский, 48 kHz, DTS, 6 ch, 1509 kbps avg, Авторский, Антон Карповский
    Внешние файлы
    Информация о звуке:русский, 48 kHz, AC3, 6 ch, 448 kbps avg, Авторский, Антон Карповский
    Информация о звуке:французский, 48 kHz, DTS, 6 ch, 1509 kbps avg, Оригинал
    Субтитры:русские
    Субтитры:английские
    Исходник:KpucTo161 (HDtracker)
    Сравнение с исходником

    MediaInfo + Лог х264
    Общее
    Полное имя : D:VideoOsinoe gnezdo.2002.BDRip.1080pOsinoe gnezdo.2002.AVO.rus.А.Карповский.ac3
    Формат : AC-3
    Формат/Информация : Audio Coding 3
    Размер файла : 344 Мбайт
    Продолжительность : 1 ч. 47 м.
    Режим общего битрейта : Постоянный
    Общий поток : 448 Кбит/сек
    Аудио
    Формат : AC-3
    Формат/Информация : Audio Coding 3
    Расширение режима : CM (complete main)
    Параметр Endianness формата : Big
    Продолжительность : 1 ч. 47 м.
    Вид битрейта : Постоянный
    Битрейт : 448 Кбит/сек
    Каналы : 6 каналов
    Расположение каналов : Front: L C R, Side: L R, LFE
    Частота : 48,0 КГц
    Битовая глубина : 16 бит
    Метод сжатия : С потерями
    Размер потока : 344 Мбайт (100%)
    Общее
    Уникальный идентификатор : 183569668818473856211290658124801597203 (0x8A1A3B71D81DA0DF81DD864E6F4D5F13)
    Полное имя : D:VideoOsinoe gnezdo.2002.BDRip.1080pOsinoe gnezdo.2002.BDRip.1080p.mkv
    Формат : Matroska
    Версия формата : Version 4/Version 2
    Размер файла : 8,77 Гбайт
    Продолжительность : 1 ч. 47 м.
    Общий поток : 11,7 Мбит/сек
    Дата кодирования : UTC 2014-07-21 07:47:05
    Программа кодирования : mkvmerge v6.9.1 (;Blue Panther;) 64bit built on Apr 18 2014 18:23:38
    Библиотека кодирования : libebml v1.3.0 + libmatroska v1.4.1
    Видео
    Идентификатор : 1
    Формат : AVC
    Формат/Информация : Advanced Video Codec
    Профиль формата : High@L4.1
    Параметр CABAC формата : Да
    Параметр ReFrames формата : 4 кадра
    Идентификатор кодека : V_MPEG4/ISO/AVC
    Продолжительность : 1 ч. 47 м.
    Битрейт : 9521 Кбит/сек
    Ширина : 1920 пикселей
    Высота : 818 пикселей
    Соотношение сторон : 2,35:1
    Режим частоты кадров : Постоянный
    Частота кадров : 24,000 кадра/сек
    Цветовое пространство : YUV
    Субдискретизация насыщенности : 4:2:0
    Битовая глубина : 8 бит
    Тип развёртки : Прогрессивная
    Бит/(Пиксели*Кадры) : 0.253
    Размер потока : 7,13 Гбайт (81%)
    Заголовок : BDRip -- STarankov
    Библиотека кодирования : x264 core 142 r2431 ac76440
    Залил: msltel
    Размер скачиваемого торрента: 10.24 GB (10996221320 Bytes)


    Осиное гнездо/Nid de guepes/The Nest (2002) BDRip 1080p by msltel | D, A скачать через торрент бесплатно
    загрузка...
    Рейтинг →
     (голосов: 1, оценка 5/5, голосовать можно 1 раз )

    Другие торренты по теме:

  • Осиное гнездо / Nid de guepes / The Nest (2002) BDRip 1080p | D, Р
  • Биркин Василий - Осиное гнездо (2011) MP3
  • Осиное гнездо / Nid de guepes / The Nest (2002) BDRip-AVC от 0ptimus | D скачать через торрент бесплатно
  • Осиное гнездо / Nid de gupes (2002) BDRip 720p от Leonardo and Scarabey | D
  • Осиное гнездо (2017) HDTVRip от GeneralFilm
  • Осиное гнездо (2017) HDTVRip от Files-x
  • Осиное гнездо (2017) HDTVRip-AVC от Files-x
  • Осиное гнездо (2017) WEB-DLRip-AVC от ExKinoRay


    • Комментарии (0):

      Информация

      Информация

        Посетители, находящиеся в группе Гости, не могут оставлять комментарии в данной новости.

        ↓ Меню



        ↓ Опрос

        А Вы добавили сайт в закладки?
        Да
        Не


        Top 10 за месяц (Фильмы)