.
Авторизация | Регистрация
Хочешь лучшие торренты? Добавь свой email!
Добавить
» » Враг номер один / Враги Общества # 1 / Public Enemy No. 1 (1996) DVDRip от Leon-masl | P, A скачать через торрент бесплатно




    Враг номер один / Враги Общества # 1 / Public Enemy No. 1 (1996) DVDRip от Leon-masl | P, A скачать через торрент бесплатно

    Опубликовал: Админ | Дата: 27-02-2015, 11:10 | Просмотров: 305


    Детально о кино
    Русское название:Враг номер один/Враги Общества # 1
    Русское название в мировом прокате:Public Enemy No. 1
    Создали в:1996
    Категория жанра:боевик, криминал
    Главный режиссер:Марк Лестер/Mark L. Lester
    Актеры:Тереза Рассел/Theresa Russell/,Эрик Робертс/Eric Roberts/, Дэн Кортез /Dan Cortese/, Гэвин Хэррисон /Gavin Harrison/, Джозеф Линдси,Джеймс Марсден/James Marsden/, Джозеф Дэйн,Фрэнк Сталлоне/Frank Stallone/,Алисса Милано/Alyssa Milano/, Грэнт Крэймер /Grant Cramer/
    Сюжет фильма:
    История легендарных гангстеров - Кэйт Баркер и ее сыновей (о них даже пели песню BONY M), наводивших ужас на банки во времена депрессии в Америки, начинается с побега маленькой Кэйт от пьяницы-отца в 1905 году. Она выросла большой, получила первую пулю в ногу за самогоноварение, вышла замуж за Джорджа Баркера, родила ему четырех сыновей, но из бедности, живя честно, выбраться не могла. Тогда она обучила их стрелять и ограбила первый магазин, убив владельца, обсчитывавшего их. После курса тренировки, они грабят первый банк, а потом... Если вы любите картины вроде Диллинджера и Бонни и Клайд, то это как раз для вас. (Иванов М.)

    Снималось в:США
    Время просмотра:01:31:09
    Перевод текста:Профессиональный (многоголосый, закадровый), Авторский (одноголосый) Ю.Сербин
    Файл
    Кодек для видео:XviD
    Качество фильма:DVDRip
    Информация о видео:704x544, 23.976 fps, 1837 kbps
    Информация о звуке 1:AC3, 6 ch, 48.0 khz, 448 kbps............................Профессиональный (многоголосый, закадровый)
    Информация о звуке 2:AC3, 2 ch, 48.0 khz, 384 kbps............................Авторский (одноголосый) Ю.Сербин- отдельно
    Информация о звуке 3:AC3, 2 ch, 48.0 khz, 192 kbps............................Оригинальная (ENG)- отдельно
    MI
    Общее
    Полное имя : Vrag_obschestva_№ 1Vrag_obschestva_№ 1_DVDRip.avi
    Формат : AVI
    Формат/Информация : Audio Video Interleave
    Размер файла : 1,46 Гбайт
    Продолжительность : 1 ч. 31 м.
    Общий поток : 2295 Кбит/сек
    Программа кодирования : VirtualDubMod 1.5.10.3 | www.virtualdub-fr.org || (build 2550/release)
    Библиотека кодирования : VirtualDubMod build 2550/release
    Видео
    Идентификатор : 0
    Формат : MPEG-4 Visual
    Профиль формата : Advanced Simple@L5
    Параметр BVOP формата : 1
    Параметр QPel формата : Нет
    Параметр GMC формата : Без точки перехода
    Параметр матрицы формата : Выборочная
    Идентификатор кодека : XVID
    Идентификатор кодека/Подсказка : XviD
    Продолжительность : 1 ч. 31 м.
    Битрейт : 1837 Кбит/сек
    Ширина : 704 пикс.
    Высота : 544 пикс.
    Соотношение сторон : 1,294
    Частота кадров : 23,976 кадр/сек
    Цветовое пространство : YUV
    Подвыборка цветности : 4:2:0
    Битовая глубина : 8 бит
    Тип развёртки : Прогрессивная
    Метод сжатия : С потерями
    Бит/(Пиксели*Кадры) : 0.200
    Размер потока : 1,17 Гбайт (80%)
    Библиотека кодирования : XviD 73
    Аудио
    Идентификатор : 1
    Формат : AC-3
    Формат/Информация : Audio Coding 3
    Расширение режима : CM (complete main)
    Идентификатор кодека : 2000
    Продолжительность : 1 ч. 31 м.
    Вид битрейта : Постоянный
    Битрейт : 448 Кбит/сек
    Канал(ы) : 6 канала(ов)
    Расположение каналов : Front: L C R, Side: L R, LFE
    Частота : 48,0 КГц
    Битовая глубина : 16 бит
    Метод сжатия : С потерями
    Размер потока : 292 Мбайт (20%)
    Выравнивание : Разделение по промежуткам
    Продолжительность промежутка : 42 мс. (1,00 видеокадр)
    Время предзагрузки промежутка : 500 ms
    Скриншоты для ознакомления

    Релиз подготовил:Leon-masl
    Залил: leon-masl
    Размер скачиваемого торрента: 1.83 GB (1962786048 Bytes)

    Враг номер один/Враги Общества # 1/Public Enemy No. 1 (1996) DVDRip от Leon-masl | P, A скачать через торрент бесплатно
    загрузка...
    Рейтинг →
     (голосов: 1, оценка 5/5, голосовать можно 1 раз )

    Другие торренты по теме:

  • Жизнь Льва Троцкого. Враг номер один (2017) HDTVRip от GeneralFilm


    • Комментарии (0):

      Информация

      Информация

        Посетители, находящиеся в группе Гости, не могут оставлять комментарии в данной новости.

        ↓ Меню



        ↓ Опрос

        А Вы добавили сайт в закладки?
        Да
        Не


        Top 10 за месяц (Фильмы)