.
Авторизация | Регистрация
Хочешь лучшие торренты? Добавь свой email!
Добавить
» » Эмиль из Лённеберге / Emil in Lonneberga / Emil i Lonneberga (1971) BDRip-AVC | iPad | L скачать через торрент бесплатно




    Эмиль из Лённеберге / Emil in Lonneberga / Emil i Lonneberga (1971) BDRip-AVC | iPad | L скачать через торрент бесплатно

    Опубликовал: Админ | Дата: 27-02-2015, 11:10 | Просмотров: 199


    Эмиль из Лённеберге/Emil in Lonneberga/Emil i Lonneberga (1971) BDRip-AVC | iPad | L
    Varldens basta svenska barnfilm!
    Русское название:Эмиль из Лённеберге
    Русское название в мировом прокате:Emil in Lonneberga/Emil i Lonneberga
    Создали в:1971
    Категория жанра:драма, семейный
    Главный режиссер:Олле Хеллбом
    Актеры:Ян Олссон, Лена Визборг, Аллан Эдвалль, Эми Сторм, Бьёрн Густафссон, Мод Ханссон, Мими Поллак, Георг Арлин, Карста Лёкк, Ханнелор Шрот
    Сюжет фильма:
    По одноименной повести Астрид Линдгрен. В не очень далекой стране Швеции живет вихрастый мальчишка с голубыми глазами по имени Эмиль. Он без конца попадает в различные переделки: залепляет тортом в лицо бургомистра, падает в черничный кисель, вместе с петухом и поросенком объедается пьяными вишнями и все это с самыми благими намерениями.

    Снималось в:Швеция, Германия (ФРГ)
    Киностудия:Stella Film, Svensk Filmindustri (SF)
    Время просмотра:01:36:31
    Перевод текста:Русский любительский многоголосый закадровый
    Файл
    Кодек для видео:H.264
    Качество фильма:BDRip 576p
    Информация о видео:1024x576 (19:9) at 24.000 fps, AVC at 3800 kbps
    Информация о звуке:
    1: АAС 2.0 132 kbps - Русский любительский многоголосый закадровый (студия Омикрон)
    Субтитры:Отсутствует
    MediaInfo

    General
    Complete name : I:modoutEmil.in.Lonneberga.1971.576p.L.m4v
    Format : MPEG-4
    Codec ID : M4V
    File size : 2.66 GiB
    Duration : 1h 36mn
    Overall bit rate mode : Variable
    Overall bit rate : 3 947 Kbps
    Movie name : Эмиль из Лённеберге
    Performer : Olle Hellbom
    Genre : Family
    ContentType : Short Film
    Deion : Эмиль живет на хуторе с папой, мамой и маленькой сестренкой Идой. Проделки этого сорванца известны на всю округу. Эмиль — большой фантазер и следопыт! Как только в доме Свенссонов завелась крыса, Эмиль тут же нашел место, где поставить ловушку…
    Recorded date : UTC 1971-12-04 07:00:00
    Encoded date : UTC 2014-07-21 11:08:01
    Tagged date : UTC 2014-07-21 11:09:14
    Copyright : Stella Film, Svensk Filmindustri (SF)
    Cover : Yes
    Comment : Varldens basta svenska barnfilm!
    ContentRating : mpaa|PG|200|
    Title/Sort : Emil i Lonneberga
    LongDeion : Эмиль живет на хуторе с папой, мамой и маленькой сестренкой Идой. Проделки этого сорванца известны на всю округу. Эмиль — большой фантазер и следопыт! Как только в доме Свенссонов завелась крыса, Эмиль тут же нашел место, где поставить ловушку…
    AppleStoreCatalogID : 107399
    Vendor : Apple:vendor_id:1970-107399
    Video
    ID : 1
    Format : AVC
    Format/Info : Advanced Video Codec
    Format profile : High@L4.1
    Format settings, CABAC : Yes
    Format settings, ReFrames : 10 frames
    Codec ID : avc1
    Codec ID/Info : Advanced Video Coding
    Duration : 1h 36mn
    Bit rate : 3 800 Kbps
    Maximum bit rate : 19.2 Mbps
    Width : 1 024 pixels
    Height : 576 pixels
    Display aspect ratio : 16:9
    Frame rate mode : Constant
    Frame rate : 24.000 fps
    Color space : YUV
    Chroma subsampling : 4:2:0
    Bit depth : 8 bits
    Scan type : Progressive
    Bits/(Pixel*Frame) : 0.268
    Stream size : 2.56 GiB (96%)
    Title : Emil.in.Lonneberga.1971
    Language : Swedish
    Encoded date : UTC 2014-07-21 11:08:01
    Tagged date : UTC 2014-07-21 11:08:13
    Matrix coefficients : BT.709
    Audio
    ID : 2
    Format : AAC
    Format/Info : Advanced Audio Codec
    Format profile : LC
    Codec ID : 40
    Duration : 1h 36mn
    Bit rate mode : Variable
    Bit rate : 135 Kbps
    Maximum bit rate : 159 Kbps
    Channel(s) : 2 channels
    Channel positions : Front: L R
    Sampling rate : 48.0 KHz
    Compression mode : Lossy
    Stream size : 93.3 MiB (3%)
    Title : MVO Omikron
    Language : Russian
    Encoded date : UTC 2014-07-21 11:08:10
    Tagged date : UTC 2014-07-21 11:08:13
    Menu
    ID : 3
    Codec ID : text
    Duration : 1h 36mn
    Encoded date : UTC 2014-07-21 11:08:32
    Tagged date : UTC 2014-07-21 11:08:32
    Bit rate mode : CBR
    Duration_LastFrame : -208917
    x264

    x264 info: frame I:823 Avg QP:15.73 size:113585
    x264 info: frame P:31117 Avg QP:19.08 size: 46755
    x264 info: frame B:107045 Avg QP:22.55 size: 11234
    x264 info: consecutive B-frames: 2.3% 2.1% 8.6% 20.7% 21.0% 40.1% 3.0% 0.7% 1.2% 0.1% 0.0% 0.0% 0.0%
    x264 info: mb I I16..4: 17.1% 50.3% 32.6%
    x264 info: mb P I16..4: 0.6% 7.7% 2.2% P16..4: 27.5% 33.8% 16.0% 6.1% 1.4% skip: 4.8%
    x264 info: mb B I16..4: 0.0% 0.9% 0.2% B16..8: 35.5% 17.4% 3.1% direct: 5.4% skip:37.6% L0:37.0% L1:43.7% BI:19.3%
    x264 info: 8x8 transform intra:71.5% inter:39.7%
    x264 info: direct mvs spatial:99.2% temporal:0.8%
    x264 info: coded y,uvDC,uvAC intra: 94.0% 78.1% 50.8% inter: 24.4% 13.3% 5.8%
    x264 info: i16 v,h,dc,p: 18% 12% 17% 53%
    x264 info: i8 v,h,dc,ddl,ddr,vr,hd,vl,hu: 12% 9% 7% 9% 13% 14% 12% 12% 12%
    x264 info: i4 v,h,dc,ddl,ddr,vr,hd,vl,hu: 11% 9% 6% 9% 14% 14% 12% 12% 13%
    x264 info: i8c dc,h,v,p: 34% 26% 21% 19%
    x264 info: Weighted P-Frames: Y:4.4% UV:1.8%
    x264 info: ref P L0: 57.0% 9.3% 13.4% 6.4% 4.4% 3.3% 2.6% 1.5% 1.2% 1.0% 0.1% 0.0%
    x264 info: ref B L0: 91.0% 4.5% 2.1% 0.9% 0.6% 0.4% 0.3% 0.2% 0.1%
    x264 info: ref B L1: 96.9% 3.1%
    x264 info: kb/s:3800.20
    iTunes tags

    Sort Name: Emil i Lonneberga
    XID: Apple:vendor_id:1970-107399
    Content ID: 107399
    Copyright: Stella Film, Svensk Filmindustri (SF)
    ScreenWriters: Астрид Линдгрен
    Producers: Олле Хеллбом
    Director: Олле Хеллбом
    Cast: Ян Олссон, Лена Визборг, Аллан Эдвалль, Эми Сторм, Бьёрн Густафссон, Мод Ханссон, Мими Поллак, Георг Арлин, Карста Лёкк, Ханнелор Шро // Jan Ohlsson (Emil Svensson), Lena Wisborg (Ida Svensson), Allan Edwall (Anton Svensson), Emy Storm (Alma Svensson), Carsta Lock (Krosa-Maja), Hannelore Schroth (Frau Petrell), Paul Esser (Arzt)
    Rating: PG
    Long Deion: Эмиль живет на хуторе с папой, мамой и маленькой сестренкой Идой. Проделки этого сорванца известны на всю округу. Эмиль — большой фантазер и следопыт! Как только в доме Свенссонов завелась крыса, Эмиль тут же нашел место, где поставить ловушку…
    Deion: Эмиль живет на хуторе с папой, мамой и маленькой сестренкой Идой. Проделки этого сорванца известны на всю округу. Эмиль — большой фантазер и следопыт! Как только в доме Свенссонов завелась крыса, Эмиль тут же нашел место, где поставить ловушку…
    Release Date: 1971-12-04T07:00:00Z
    Genre: Family
    Artist: Olle Hellbom
    Name: Эмиль из Лённеберге
    Comments: Varldens basta svenska barnfilm!




    Залил: gekka
    Размер скачиваемого торрента: 2.66 GB (2856999598 Bytes)

    Эмиль из Лённеберге/Emil in Lonneberga/Emil i Lonneberga (1971) BDRip-AVC | iPad | L скачать через торрент бесплатно
    загрузка...
    Рейтинг →
     (голосов: 1, оценка 4/5, голосовать можно 1 раз )

    Другие торренты по теме:

  • Эмиль из Лённеберге / Emil in Lonneberga (1971) BDRip 720p от HDClub
  • Эмиль из Лённеберге / Emil in Lonneberga / Emil i Lnneberga (1971) BDRip от HQCLUB скачать через торрент бесплатно
  • Эмиль из Лённеберге / Emil i Lnneberga (1971) HDRip | P


    • Комментарии (0):

      Информация

      Информация

        Посетители, находящиеся в группе Гости, не могут оставлять комментарии в данной новости.

        ↓ Меню



        ↓ Опрос

        А Вы добавили сайт в закладки?
        Да
        Не


        Top 10 за месяц (Фильмы)