.
Авторизация | Регистрация
Хочешь лучшие торренты? Добавь свой email!
Добавить




Шалако / Shalako (1968) DVDRip скачать торрент бесплатно

Опубликовал: Админ | Дата: 27-02-2015, 11:10 | Просмотров: 293



Русское название: Шалако
Русское название в мировом прокате: Shalako
Создали в: 1968
Категория жанра: Вестерн, приключения
Главный режиссер: Эдвард Дмитрик
Актеры: Шон Коннери, Бриджит Бардо, Стивен Бойд, Джек Хоукинс, Петер ван Эйк, Хонор Блэкмен, Вуди Строуд, Эрик Сайкс, Александр Нокс, Валери Френч

Сюжет: Действие фильма происходит в XIX в. В Нью-Мехико. Некие аристократы из европы, решили поохотиться на территории дикого и воинственного племени апачей. Шалако наталкивается на лагерь охотников, когда спасает прекрасную женщину, находящуюся на грани гибели… Краснокожие устремляются на бледнолицых, расположившихся в полуразрушенной крепости. Шалако имеет богатейший опыт выживания и ведения войны в этих краях. Он прилагает массу усилий, чтобы спасти горе-охотников, но всех спасти не удается…

Снималось в: Великобритания, Германия (ФРГ), CCC Filmkunst GmbH, Kingston Film Productions Ltd., Palomar Pictures International
Время просмотра: 01:48:32
Перевод текста: Профессиональный многоголосый, профессиональный двухголосый

Качество фильма: DVDRip
Информация о видео: XviD, 1529 Кбит/с, 704x304
Информация о звуке rus: AC3, 2 ch, 192 Кбит/с (DVD-Магия)
Информация о звуке rus: AC3, 2 ch, 192 Кбит/с (SomeWax)

Инфо
Полное имя : E:Shalako 1968.tahiy.avi
Формат : AVI
Формат/Информация : Audio Video Interleave
Размер файла : 1,45 Гбайт
Продолжительность : 1 ч. 47 м.
Общий поток : 1928 Кбит/сек
Название фильма : Shalako 1968.tahiy
Программа кодирования : VirtualDubMod 1.5.10.3 | www.virtualdub-fr.org || (build 2550/release)

Видео
Идентификатор : 0
Формат : MPEG-4 Visual
Профиль формата : Advanced Simple@L5
Параметр BVOP формата : 1
Параметр QPel формата : Нет
Параметр GMC формата : Без точки перехода
Параметр матрицы формата : Default (MPEG)
Идентификатор кодека : XVID
Идентификатор кодека/Подсказка : XviD
Продолжительность : 1 ч. 47 м.
Битрейт : 1529 Кбит/сек
Ширина : 704 пикселя
Высота : 304 пикселя
Соотношение сторон : 2,35:1
Частота кадров : 25,000 кадров/сек
Цветовое пространство : YUV
Субдискретизация насыщенности : 4:2:0
Битовая глубина : 8 бит
Тип развёртки : Прогрессивная
Метод сжатия : С потерями
Бит/(Пиксели*Кадры) : 0.286
Размер потока : 1,15 Гбайт (79%)
Библиотека кодирования : XviD 1.2.1 (UTC 2008-12-04)

Аудио #1
Идентификатор : 1
Формат : AC-3
Формат/Информация : Audio Coding 3
Расширение режима : CM (complete main)
Параметр Endianness формата : Big
Идентификатор кодека : 2000
Продолжительность : 1 ч. 47 м.
Вид битрейта : Постоянный
Битрейт : 192 Кбит/сек
Каналы : 2 канала
Расположение каналов : Front: L R
Частота : 48,0 КГц
Битовая глубина : 16 бит
Метод сжатия : С потерями
Размер потока : 148 Мбайт (10%)
Выравнивание : Разделение по промежуткам
Продолжительность промежутка : 40 мс. (1,00 видеокадр)
Время предзагрузки промежутка : 500 мс.

Аудио #2
Идентификатор : 2
Формат : AC-3
Формат/Информация : Audio Coding 3
Расширение режима : CM (complete main)
Параметр Endianness формата : Big
Идентификатор кодека : 2000
Продолжительность : 1 ч. 47 м.
Вид битрейта : Постоянный
Битрейт : 192 Кбит/сек
Каналы : 2 канала
Расположение каналов : Front: L R
Частота : 48,0 КГц
Битовая глубина : 16 бит
Метод сжатия : С потерями
Размер потока : 148 Мбайт (10%)
Выравнивание : Разделение по промежуткам
Продолжительность промежутка : 40 мс. (1,00 видеокадр)
Время предзагрузки промежутка : 500 мс.




Размер скачиваемого торрента: 1.45 GB (1555402752 Bytes)

Шалако / Shalako (1968) DVDRip торрент скачать бесплатно
загрузка...
Рейтинг →
 (голосов: 1, оценка 4/5, голосовать можно 1 раз )

Другие торренты по теме:



    Комментарии (0):

    Информация

    Информация

      Посетители, находящиеся в группе Гости, не могут оставлять комментарии в данной новости.

      ↓ Меню



      ↓ Опрос

      А Вы добавили сайт в закладки?
      Да
      Не


      Top 10 за месяц (Фильмы)