.
Авторизация | Регистрация
Хочешь лучшие торренты? Добавь свой email!
Добавить
» » Красные браслеты / Pulseras Rojas / Polseres vermelles (2011) HDTVRip | DreamRecords скачать торрент бесплатно




    Красные браслеты / Pulseras Rojas / Polseres vermelles (2011) HDTVRip | DreamRecords скачать торрент бесплатно

    Опубликовал: Админ | Дата: 27-02-2015, 11:09 | Просмотров: 332



    Название: Красные браслеты
    Оригинальное название: Pulseras Rojas / Polseres vermelles
    Год выпуска: 2011
    Жанр: Драма, комедия
    Режиссер: Пао Фрейхаус, Ориол Феррер
    В ролях: Алекс Моннер, Igor Szpakowsk,i Joana Vilapuig, Марк Балагер, Нил Кардонер, Микель Иглесиас, Андре Бенито, Marta Angelat, Andreu Rif?, Xicu Mas?

    Описание: Красные браслеты - это история о группе друзей в больнице. Это пять мальчиков и одна девочка, госпитализированных на долгое время. Мы видим, как их дружба помогает им бороться со своими повседневными проблемами, будь то ампутация ноги, развод родителей и много других обстоятельств, не обязательно связанных с их болезнями.



    Страна: Испания
    Продолжительность: 01 x ~ 00:44:00
    Перевод: Любительский (многоголосый, закадровый) - DreamRecords
    Субтитры: Нет

    Озвучка: ИринаЮС, Юлия Реутова, Илья Гусаков, Владислав Данилов
    Перевод: группа Мир испанских сериалов
    Подготовка видео: LeX
    Работа со звуком: Александр Юхно
    Постер: Mystery



    Качество: HDTVRip
    Формат: AVI
    Видео: XviD, 720x400, 25 fps, 1294 kbps
    Аудио: MP3, 48 kHz, 2 ch, 192.00 kbps

    MI
    Общее
    Полное имя : D:ОзвучкаКрасные браслетыКБ1 (fixing).avi
    Формат : AVI
    Формат/Информация : Audio Video Interleave
    Размер файла : 472 Мбайт
    Продолжительность : 44 м.
    Общий поток : 1496 Кбит/сек
    Программа кодирования : VirtualDubModRus 1.5.10.2 (build 2542/release)
    Библиотека кодирования : VirtualDub build 35390/release

    Видео
    Идентификатор : 0
    Формат : MPEG-4 Visual
    Профиль формата : Advanced Simple@L5
    Параметр BVOP формата : 1
    Параметр QPel формата : Нет
    Параметр GMC формата : Без точки перехода
    Параметр матрицы формата : Default (MPEG)
    Идентификатор кодека : XVID
    Идентификатор кодека/Подсказка : XviD
    Продолжительность : 44 м.
    Битрейт : 1295 Кбит/сек
    Ширина : 720 пикс.
    Высота : 400 пикс.
    Соотношение сторон : 16:9
    Частота кадров : 25,000 кадр/сек
    Цветовое пространство : YUV
    Подвыборка цветности : 4:2:0
    Битовая глубина : 8 бит
    Тип развёртки : Прогрессивная
    Метод сжатия : С потерями
    Бит/(Пиксели*Кадры) : 0.180
    Размер потока : 408 Мбайт (87%)
    Библиотека кодирования : XviD 64

    Аудио
    Идентификатор : 1
    Формат : MPEG Audio
    Версия формата : Version 1
    Профиль формата : Layer 3
    Идентификатор кодека : 55
    Идентификатор кодека/Подсказка : MP3
    Продолжительность : 44 м.
    Вид битрейта : Постоянный
    Битрейт : 192 Кбит/сек
    Канал(ы) : 2 канала(ов)
    Частота : 48,0 КГц
    Метод сжатия : С потерями
    Размер потока : 60,5 Мбайт (13%)
    Выравнивание : Разделение по промежуткам
    Продолжительность промежутка : 40 мс. (1,00 видеокадр)
    Время предзагрузки промежутка : 500 ms
    Скриншоты на TwinPix


    Релиз от:
    Залил: Dian Keht
    Размер: 471.90 MB (494820278 Bytes)
    загрузка...
    Рейтинг →
     (голосов: 1, оценка 5/5, голосовать можно 1 раз )

    Другие торренты по теме:

  • Красные браслеты (USA) / Red Band Society (2014) WEB-DLRip от MediaClub | D | Невафильм скачать через торрент бесплатно
  • Красные браслеты (USA) / Red Band Society (2014) WEB-DL 720p от MediaClub | D | Невафильм скачать через торрент бесплатно
  • Красные браслеты / Red Band Society (2014) WEB-DLRip от New-Team | D | Невафильм скачать через торрент бесплатно
  • Красные браслеты / Red Band Society (2014) WEB-DLRip от New-Team | D | Невафильм скачать через торрент бесплатно
  • Красные браслеты (USA) / Red Band Society
  • Красные Браслеты (США) / Red Band Society (USA) скачать через торрент бесплатно
  • Красные браслеты, 1 сезон 1-7 серии из 13 / Red Band Society (USA) скачать через торрент бесплатно
  • Красные браслеты / Club der roten Bnder (2015) HDTVRip | ViruseProject


    • Комментарии (0):

      Информация

      Информация

        Посетители, находящиеся в группе Гости, не могут оставлять комментарии в данной новости.

        ↓ Меню



        ↓ Опрос

        А Вы добавили сайт в закладки?
        Да
        Не


        Top 10 за месяц (Фильмы)