.
Авторизация | Регистрация
Хочешь лучшие торренты? Добавь свой email!
Добавить
» » Кровавая луна / Bloodmoon (1997) DVDRip | P2 скачать через торрент бесплатно




    Кровавая луна / Bloodmoon (1997) DVDRip | P2 скачать через торрент бесплатно

    Опубликовал: Админ | Дата: 27-02-2015, 11:10 | Просмотров: 282



    Детально о кино
    Русское название: Кровавая луна
    Русское название в мировом прокате: Bloodmoon
    Создали в: 1997
    Категория жанра: Боевик, триллер
    Главный режиссер: Тони Люн Сиу Хунг / Tony Leung Siu Hung
    Актеры: Гэри Дэниелс, Чак Джеффрис, Фрэнк Горшин, Даррен Шахлави, Nina Repeta, Ли Джонс, Jeffrey Pillars, Brandie Rocci, Кит Витали, Джо Хесс, ...

    Сюжет фильма:
    Безумный маньяк-убийца выслеживает и убивает сильнейших жертв, каких только может найти — мастеров восточных единоборств, чемпионов, доказавших свое первенство на ринге. Теперь они вынуждены драться не на жизнь, а на смерть.Перед департаментом полиции Нью-Йорка встает проблема — как выследить и остановить убийцу, владеющего восточными единоборствами на уровне чемпиона мира, который не оставляет практически никаких улик и сбивает сыщиков с толку своими посланиями через компьютерную сеть, электронную почту графические файлы и цифровое видео.Шеф полиции уговаривает Кена О`Хару, бывшего специалиста по серийным убийствам, вновь взять в руки оружие и остановить убийцу прежде, чем тот нанесет новый удар. Кен приступает к расследованию и пока еще не знает, что у него возникла одна большая проблема. Он — следующий в кровавом списке убийцы.




    Снималось в: США
    Время просмотра: 01:42:38
    Перевод текста: Профессиональный (двухголосый закадровый) студия Ракурс по заказу Екатеринбург Арт (Home video)

    Файл
    Качество фильма: DVDRip исх. DVD5
    Тип видео файла: AVI
    Информация о видео кодек: XviD
    Информация о звуке кодек: AC3
    Информация о видео: 640x480 (1.33:1), 23.976 fps, XviD build 50 ~1779 kbps avg, 0.24 bit/pixel
    Информация о звуке: 48 kHz, AC3 Dolby Digital, 2/0 (L,R) ch, ~256.00 kbps avg

    Скриншоты для ознакомления
    MediaInfo
    downloadBloodmon.1997.avi
    Формат : AVI
    Формат/Информация : Audio Video Interleave
    Размер файла : 1,46 Гбайт
    Продолжительность : 1 ч. 42 м.
    Общий поток : 2045 Кбит/сек
    Программа кодирования : VirtualDubMod 1.5.10.3 | http://www.virtualdub-fr.org || (build 2550/release)
    Библиотека кодирования : VirtualDubMod build 2550/release

    Видео
    Идентификатор : 0
    Формат : MPEG-4 Visual
    Профиль формата : Advanced Simple@L5
    Параметр BVOP формата : 3
    Параметр QPel формата : Нет
    Параметр GMC формата : Без точки перехода
    Параметр матрицы формата : Default (H.263)
    Идентификатор кодека : XVID
    Идентификатор кодека/Подсказка : XviD
    Продолжительность : 1 ч. 42 м.
    Битрейт : 1780 Кбит/сек
    Ширина : 640 пикселей
    Высота : 480 пикселей
    Соотношение сторон : 4:3
    Частота кадров : 23,976 кадра/сек
    Цветовое пространство : YUV
    Субдискретизация насыщенности : 4:2:0
    Битовая глубина : 8 бит
    Тип развёртки : Прогрессивная
    Метод сжатия : С потерями
    Бит/(Пиксели*Кадры) : 0.242
    Размер потока : 1,27 Гбайт (87%)
    Библиотека кодирования : XviD 1.2.1 (UTC 2008-12-04)

    Аудио
    Идентификатор : 1
    Формат : AC-3
    Формат/Информация : Audio Coding 3
    Расширение режима : CM (complete main)
    Параметр Endianness формата : Big
    Идентификатор кодека : 2000
    Продолжительность : 1 ч. 42 м.
    Вид битрейта : Постоянный
    Битрейт : 256 Кбит/сек
    Каналы : 2 канала
    Расположение каналов : Front: L R
    Частота : 48,0 КГц
    Битовая глубина : 16 бит
    Метод сжатия : С потерями
    Размер потока : 188 Мбайт (13%)
    Выравнивание : Разделение по промежуткам
    Продолжительность промежутка : 42 мс. (1,00 видеокадр)
    Время предзагрузки промежутка : 500 мс.


    Релиз подготовил:
    Залил: grom23
    Размер скачиваемого торрента: 1.46 GB (1571110912 Bytes)

    Кровавая луна / Bloodmoon (1997) DVDRip | P2 скачать через торрент бесплатно
    загрузка...
    Рейтинг →
     (голосов: 1, оценка 3/5, голосовать можно 1 раз )

    Другие торренты по теме:

  • Кровавая луна / Die Sge des Todes / Bloody moon (1981) BDRemux 1080p от MediaClub | A
  • Кровавая луна / Bloody Moon (1981) BDRip от Bathory | A


    • Комментарии (0):

      Информация

      Информация

        Посетители, находящиеся в группе Гости, не могут оставлять комментарии в данной новости.

        ↓ Меню



        ↓ Опрос

        А Вы добавили сайт в закладки?
        Да
        Не


        Top 10 за месяц (Фильмы)