.
Авторизация | Регистрация
Хочешь лучшие торренты? Добавь свой email!
Добавить
» » Мэнсфилд Парк / Mansfield Park (1983) DVDRip | P скачать торрент бесплатно




    Мэнсфилд Парк / Mansfield Park (1983) DVDRip | P скачать торрент бесплатно

    Опубликовал: Админ | Дата: 27-02-2015, 11:10 | Просмотров: 337



    Детально о кино
    Русское название: Мэнсфилд Парк
    Русское название в мировом прокате: Mansfield Park
    Создали в: 1983
    Категория жанра: драма, мелодрама
    Главный режиссер: Дэвид Гайлз
    Актеры: Анна Мэсси, Анджела Плезенс, Сильвестра Ле Тузель, Николас Фэррел, Джеки Смит-Вуд, Роберт Барбеидж, Горден Кэйи, Сьюзэн Эдмонстоун, Невилл Филлипс, Снафф

    Сюжет фильма:
    Классическая история любви по роману Джейн Остин. Мэнсфилд Парк — великолепная загородная резиденция сэра Томаса Бертрама. В этом бастионе высшей британской аристократии 18 века проживает его семья.

    И здесь же воспитывается Фанни Прайс, бедная родственница Бертрамов. Родственники никогда не упускают случая напомнить ей о ее истинном положении в семье. Лишь кузен Эдмунд относится к ней с любовью и заботой. Он один ценит ее скромность, терпение, доброту и силу характера. Но сможет ли Фанни завоевать должное положение и в обществе и в сердце мужчины своей мечты?



    Снималось в: Великобритания
    Киностудия: BBC
    Время просмотра: ~00:50:00 серия
    Перевод текста: Профессиональный (многоголосый, закадровый)

    Файл
    Кодек для видео: XviD / AC3
    Качество фильма: DVDRip
    Информация о видео: MPEG4, XviD, 640x480 (4:3), 25.000 fps, 1 862 Kbps (0.242 bit/pixel)
    Информация о звуке: AC-3, 48.0 KHz, 2 ch, 192 Kbps, CBR (Russian)

    Скриншоты для ознакомления
    Screenshots
    MediaInfo
    General
    Complete name : /Mansfield Park_1983_BBC_mini/Mansfield Park_1983_BBC_1_of_6.avi
    Format : AVI
    Format/Info : Audio Video Interleave
    File size : 746 MiB
    Duration : 50mn 37s
    Overall bit rate : 2 061 Kbps
    Writing application : VirtualDubMod 1.5.4.1 (build 2178/release)
    Writing library : VirtualDubMod build 2178/release

    Video
    ID : 0
    Format : MPEG-4 Visual
    Format profile : Advanced Simple@L5
    Format settings, BVOP : 1
    Format settings, QPel : No
    Format settings, GMC : No warppoints
    Format settings, Matrix : Custom
    Codec ID : XVID
    Codec ID/Hint : XviD
    Duration : 50mn 37s
    Bit rate : 1 862 Kbps
    Width : 640 pixels
    Height : 480 pixels
    Display aspect ratio : 4:3
    Frame rate : 25.000 fps
    Color space : YUV
    Chroma subsampling : 4:2:0
    Bit depth : 8 bits
    Scan type : Progressive
    Compression mode : Lossy
    Bits/(Pixel*Frame) : 0.242
    Stream size : 674 MiB (90%)
    Writing library : XviD 1.2.0.dev47 (UTC 2006-11-01)

    Audio
    ID : 1
    Format : AC-3
    Format/Info : Audio Coding 3
    Mode extension : CM (complete main)
    Format settings, Endianness : Big
    Codec ID : 2000
    Duration : 50mn 36s
    Bit rate mode : Constant
    Bit rate : 192 Kbps
    Channel(s) : 2 channels
    Channel positions : Front: L R
    Sampling rate : 48.0 KHz
    Bit depth : 16 bits
    Compression mode : Lossy
    Stream size : 69.5 MiB (9%)
    Alignment : Split accross interleaves
    Interleave, duration : 96 ms (2.40 video frames)
    Interleave, preload duration : 96 ms
    Language : Russian

    Размер скачиваемого торрента: 4.37 GB (4695280151 Bytes)

    Мэнсфилд Парк / Mansfield Park (1983) DVDRip | P торрент скачать бесплатно
    загрузка...
    Рейтинг →
     (голосов: 1, оценка 4/5, голосовать можно 1 раз )

    Другие торренты по теме:

  • Машина Джейн Мэнсфилд / Jayne Mansfields Car (2012) BDRip 720p | Чистый звук скачать через торрент бесплатно
  • Машина Джейн Мэнсфилд / Jayne Mansfields Car (2012) HDRip | Чистый звук скачать через торрент бесплатно
  • Машина Джейн Мэнсфилд / Jayne Mansfields Car (2012) BDRip 720p | Лицензия
  • Машина Джейн Мэнсфилд / Jayne Mansfields Car (2012) HDRip | Лицензия
  • Машина Джейн Мэнсфилд / Jayne Mansfields Car (2012) BDRip 1080p от CINEMANIA | D


    • Комментарии (0):

      Информация

      Информация

        Посетители, находящиеся в группе Гости, не могут оставлять комментарии в данной новости.

        ↓ Меню



        ↓ Опрос

        А Вы добавили сайт в закладки?
        Да
        Не


        Top 10 за месяц (Фильмы)