.
Авторизация | Регистрация
Хочешь лучшие торренты? Добавь свой email!
Добавить
» » Стерлось из памяти / Девственно чистая память / Чистая страница / Clean Slate (1994) HDTVRip от Leon-masl | P2, A скачать торрент бесплатно




    Стерлось из памяти / Девственно чистая память / Чистая страница / Clean Slate (1994) HDTVRip от Leon-masl | P2, A скачать торрент бесплатно

    Опубликовал: Админ | Дата: 27-02-2015, 11:10 | Просмотров: 271



    Детально о кино
    Русское название: Стерлось из памяти / Девственно чистая память / Чистая страница
    Русское название в мировом прокате: Clean Slate
    Создали в: 1994
    Категория жанра: Комедия, детектив
    Главный режиссер: Мик Джексон
    Актеры: Дэйна Карви, Валерия Голино, Джеймс Эрл Джоунс, Кевин Поллак, Майкл Гэмбон, Майкл Мерфи, Джэйни Брук, Вито Ругинис, Оливия д;Або

    Сюжет фильма:
    Бывший полицейский, а ныне частный детектив, потерял память и каждое утро вынужден прослушивать свои записи на диктофоне, чтобы вспомнить предыдущее. Из-за амнезии он постоянно попадает в нелепые ситуации с коллегами, бандитами, женщинами. В довершение ко всему начинает понимать, что замешан в какой-то афере, грозящей крупными неприятностями. Но в момент кульминации память возвращается к нему, а с ней приходят богатство и любовь.




    Снималось в: CША
    Время просмотра: 01:42:26
    Перевод текста: Профессиональный (двухголосый закадровый) НТВ+, Авторский (одноголосый закадровый) А. Михалев

    Файл
    Кодек для видео: XviD
    Качество фильма: HDTVRip
    Информация о видео: 704x400, 1648 kbps, 25.000 fps
    Информация о звуке 1: AC3, 192 kbps, 2 ch, 48.00 khz....Профессиональный (двухголосый закадровый) НТВ+
    Информация о звуке 2: AC3, 192 kbps, 2 ch, 48.00 khz....Авторский (одноголосый закадровый) А. Михалев
    MI
    Общее
    Полное имя : Clean.Slate.1994.HDTVRip.avi
    Формат : AVI
    Формат/Информация : Audio Video Interleave
    Размер файла : 1,46 Гбайт
    Продолжительность : 1 ч. 42 м.
    Общий поток : 2046 Кбит/сек
    Программа кодирования : VirtualDubMod 1.5.10.2 (build 2542/release)
    Библиотека кодирования : VirtualDubMod build 2542/release

    Видео
    Идентификатор : 0
    Формат : MPEG-4 Visual
    Профиль формата : Advanced Simple@L5
    Параметр BVOP формата : 1
    Параметр QPel формата : Нет
    Параметр GMC формата : Без точки перехода
    Параметр матрицы формата : Выборочная
    Идентификатор кодека : XVID
    Идентификатор кодека/Подсказка : XviD
    Продолжительность : 1 ч. 42 м.
    Битрейт : 1648 Кбит/сек
    Ширина : 704 пикс.
    Высота : 400 пикс.
    Соотношение сторон : 16:9
    Частота кадров : 25,000 кадр/сек
    Цветовое пространство : YUV
    Подвыборка цветности : 4:2:0
    Битовая глубина : 8 бит
    Тип развёртки : Прогрессивная
    Метод сжатия : С потерями
    Бит/(Пиксели*Кадры) : 0.234
    Размер потока : 1,18 Гбайт (81%)
    Библиотека кодирования : XviD 73

    Аудио #1
    Идентификатор : 1
    Формат : AC-3
    Формат/Информация : Audio Coding 3
    Расширение режима : CM (complete main)
    Идентификатор кодека : 2000
    Продолжительность : 1 ч. 42 м.
    Вид битрейта : Постоянный
    Битрейт : 192 Кбит/сек
    Канал(ы) : 2 канала(ов)
    Расположение каналов : Front: L R
    Частота : 48,0 КГц
    Битовая глубина : 16 бит
    Метод сжатия : С потерями
    Размер потока : 141 Мбайт (9%)
    Выравнивание : Разделение по промежуткам
    Продолжительность промежутка : 40 мс. (1,00 видеокадр)
    Время предзагрузки промежутка : 500 ms

    Аудио #2
    Идентификатор : 2
    Формат : AC-3
    Формат/Информация : Audio Coding 3
    Расширение режима : CM (complete main)
    Идентификатор кодека : 2000
    Продолжительность : 1 ч. 42 м.
    Вид битрейта : Постоянный
    Битрейт : 192 Кбит/сек
    Канал(ы) : 2 канала(ов)
    Расположение каналов : Front: L R
    Частота : 48,0 КГц
    Битовая глубина : 16 бит
    Метод сжатия : С потерями
    Размер потока : 141 Мбайт (9%)
    Выравнивание : Разделение по промежуткам
    Продолжительность промежутка : 40 мс. (1,00 видеокадр)
    Время предзагрузки промежутка : 500 ms
    Скриншоты для ознакомления


    Релиз подготовил: Leon-masl
    Залил: leon-masl
    Размер скачиваемого торрента: 1.46 GB (1572212736 Bytes)

    Стерлось из памяти / Девственно чистая память / Чистая страница / Clean Slate (1994) HDTVRip от Leon-masl | P2, A торрент скачать бесплатно
    загрузка...
    Рейтинг →
     (голосов: 1, оценка 5/5, голосовать можно 1 раз )

    Другие торренты по теме:

  • Стерлось из памяти / Девственно чистая память / Clean Slate (1994) DVDRip от Blake | A скачать через торрент бесплатно


    • Комментарии (0):

      Информация

      Информация

        Посетители, находящиеся в группе Гости, не могут оставлять комментарии в данной новости.

        ↓ Меню



        ↓ Опрос

        А Вы добавили сайт в закладки?
        Да
        Не


        Top 10 за месяц (Фильмы)