.
Авторизация | Регистрация
Хочешь лучшие торренты? Добавь свой email!
Добавить
» » Перекрёстный огонь / Les insoumis (2008) HDRip | P скачать торрент бесплатно




    Перекрёстный огонь / Les insoumis (2008) HDRip | P скачать торрент бесплатно

    Опубликовал: Админ | Дата: 27-02-2015, 11:10 | Просмотров: 261


    Детально о кино
    Категория жанра: боевик, триллер, криминал
    Создали в: 2008
    Главный режиссер: Клод-Мишель Ром / Claude-Michel Rome
    Актеры: Ришар Берри, Паскаль Элбе, Забу Брайтмен, Айсса Майга, Бернар Бланкан, Джулейн Лондез, Мусса Мааскри, Фридерик Сорель, Жеральд Ларош

    Сюжет:
    В полицейский участок на окраине города переведен новый инспектор — Винсент Дриё. И он начинает расследовать дела, на которые все давно махнули рукой. Он видит то, что никто не осмеливается замечать. Он выдвигает обвинения невзирая на чины и лица.



    Снималось в: Франция
    Киностудия: Les Films de la Suane
    Время просмотра: 01:33:52
    Перевод текста: Профессиональный (многоголосый, закадровый)
    Субтитры подготовлены: нет

    Файл
    Качество фильма: HDRip
    Тип видео: AVI (XviD)
    Информация о видео: 720x400, 25,000 fps, 1695 kbps
    Информация о звуке: AC3, 6 ch, 384 kbps

    M/I
    General
    Complete name : D:Perekrestny.Ogon;.(2008).HDRip.-=DoMiNo=-.avi
    Format : AVI
    Format/Info : Audio Video Interleave
    File size : 1.37 GiB
    Duration : 1h 33mn
    Overall bit rate : 2 088 Kbps
    Writing library : VirtualDub build 35491/release

    Video
    ID : 0
    Format : MPEG-4 Visual
    Format profile : Advanced Simple@L5
    Format settings, BVOP : 2
    Format settings, QPel : No
    Format settings, GMC : No warppoints
    Format settings, Matrix : Default (H.263)
    Muxing mode : Packed bitstream
    Codec ID : XVID
    Codec ID/Hint : XviD
    Duration : 1h 33mn
    Bit rate : 1 695 Kbps
    Width : 720 pixels
    Height : 400 pixels
    Display aspect ratio : 16:9
    Frame rate : 25.000 fps
    Color space : YUV
    Chroma subsampling : 4:2:0
    Bit depth : 8 bits
    Scan type : Interlaced
    Scan order : Top Field First
    Compression mode : Lossy
    Bits/(Pixel*Frame) : 0.235
    Stream size : 1.11 GiB (81%)
    Writing library : XviD 64

    Audio
    ID : 1
    Format : AC-3
    Format/Info : Audio Coding 3
    Mode extension : CM (complete main)
    Format settings, Endianness : Big
    Codec ID : 2000
    Duration : 1h 33mn
    Bit rate mode : Constant
    Bit rate : 384 Kbps
    Channel(s) : 6 channels
    Channel positions : Front: L C R, Side: L R, LFE
    Sampling rate : 48.0 KHz
    Bit depth : 16 bits
    Compression mode : Lossy
    Stream size : 258 MiB (18%)
    Alignment : Aligned on interleaves
    Interleave, duration : 40 ms (1.00 video frame)
    Interleave, preload duration : 512 ms


    Залил: -=DoMiNo=-
    Размер скачиваемого торрента: 1.37 GB (1471249590 Bytes)

    Перекрёстный огонь / Les insoumis (2008) HDRip | P торрент скачать бесплатно
    загрузка...
    Рейтинг →
     (голосов: 1, оценка 5/5, голосовать можно 1 раз )

    Другие торренты по теме:



      Комментарии (0):

      Информация

      Информация

        Посетители, находящиеся в группе Гости, не могут оставлять комментарии в данной новости.

        ↓ Меню



        ↓ Опрос

        А Вы добавили сайт в закладки?
        Да
        Не


        Top 10 за месяц (Фильмы)