.
Авторизация | Регистрация
Хочешь лучшие торренты? Добавь свой email!
Добавить
» » Лара Крофт: Расхитительница гробниц / Lara Croft: Tomb Raider (2001) HDRip-AVC | iPad | D,P,A скачать торрент бесплатно




    Лара Крофт: Расхитительница гробниц / Lara Croft: Tomb Raider (2001) HDRip-AVC | iPad | D,P,A скачать торрент бесплатно

    Опубликовал: Админ | Дата: 27-02-2015, 11:10 | Просмотров: 329



    Лара Крофт: Расхитительница гробниц / Lara Croft: Tomb Raider (2001) HDRip-AVC | iPad | D,P,A
    The Biggest Adventure Begins 2001

    Русское название: Лара Крофт: Расхитительница гробниц
    Русское название в мировом прокате: Lara Croft: Tomb Raider
    Создали в: 2001
    Категория жанра: фэнтези, боевик, триллер
    Главный режиссер: Саймон Уэст
    Актеры: Анджелина Джоли, Джон Войт, Иэн Глен, Ноа Тейлор, Дэниэл Крэйг, Ричард Джонсон, Крис Барри, Джулиан Райнд-Татт, Лесли Филлипс, Роберт Филлипс

    Сюжет фильма:
    Она - само совершенство! На нашей планете нет женщины, которая могла бы сравниться с ней. Она - божественно прекрасна, невероятно умна и потрясающе отважна. Она владеет всеми видами рукопашного боя, изумительно стреляет из любых видов оружия и способна выжить в самых экстремальных условиях.
    Эта девушка - дочь лорда. Ее имя - леди Лара Крофт. И пусть трепещут злодеи, которые попытаются встать у нее на пути...




    Снималось в: США, Великобритания, Япония
    Киностудия: Paramount Pictures

    Время просмотра: 01:40:32
    Перевод текста: Русский дублированный, профессиональный многоголосый закадровый, авторский

    Файл
    Кодек для видео: H.264
    Качество фильма: HDRip 576p
    Информация о видео: 1024x436 (2.35:1) at 23.976 fps, AVC at 3900 kbps
    Информация о звуке:
    1: АAС 2.0 152 kbps - Русский дублированный
    2: АAС 2.0 144 kbps - Русский профессиональный многоголосый закадровый
    3: АAС 2.0 144 kbps - Русский авторский (Гаврилов)
    4: АAС 2.0 156 kbps - Английский
    Субтитры: Русский, Английский

    MediaInfo

    General
    Complete name : I:modoutLara.Croft.Tomb.Raider.2001.576p.DPA.m4v
    Format : MPEG-4
    Codec ID : M4V
    File size : 3.21 GiB
    Duration : 1h 40mn
    Overall bit rate mode : Variable
    Overall bit rate : 4 575 Kbps
    Movie name : Лара Крофт: Расхитительница гробниц
    Performer : Simon West Lawrence Gordon
    Genre : Action Adventure
    ContentType : Short Film
    Deion : Она — само совершенство! На нашей планете нет женщины, которая могла бы сравниться с ней. Она — божественно прекрасна, невероятно умна и потрясающе отважна. Она владеет всеми видами рукопашного боя, изумительно стреляет из любых видов оружия...
    Recorded date : UTC 2001-06-15 07:00:00
    Encoded date : UTC 2014-07-05 13:17:44
    Tagged date : UTC 2014-07-05 17:12:14
    Copyright : © 2001 by PARAMOUNT PICTURES. TM Core Design Ltd. All Rights Reserved.
    Cover : Yes
    Comment : The Biggest Adventure Begins 2001
    ContentRating : mpaa|PG-13|300|

    Title/Sort : Lara Croft: Tomb Raider
    LongDeion : Она — само совершенство! На нашей планете нет женщины, которая могла бы сравниться с ней. Она — божественно прекрасна, невероятно умна и потрясающе отважна. Она владеет всеми видами рукопашного боя, изумительно стреляет из любых видов оружия и способна выжить в самых экстремальных условиях.Эта девушка — дочь лорда. Ее имя — леди Лара Крофт. И пусть трепещут злодеи, которые попытаются встать у нее на пути…
    AppleStoreCatalogID : 211293149
    Vendor : Apple:vendor_id:2001-3950

    Video
    ID : 1
    Format : AVC
    Format/Info : Advanced Video Codec
    Format profile : High@L4.1
    Format settings, CABAC : Yes
    Format settings, ReFrames : 10 frames
    Codec ID : avc1
    Codec ID/Info : Advanced Video Coding
    Duration : 1h 40mn
    Bit rate : 3 950 Kbps
    Maximum bit rate : 13.7 Mbps
    Width : 1 024 pixels
    Height : 436 pixels
    Display aspect ratio : 2.35:1
    Frame rate mode : Constant
    Frame rate : 23.976 fps
    Color space : YUV
    Chroma subsampling : 4:2:0
    Bit depth : 8 bits
    Scan type : Progressive
    Bits/(Pixel*Frame) : 0.369
    Stream size : 2.77 GiB (86%)
    Title : Lara Croft_ Tomb Raider _2001_
    Language : English
    Encoded date : UTC 2014-07-05 13:17:44
    Tagged date : UTC 2014-07-05 13:18:34
    Matrix coefficients : BT.709

    Audio #1
    ID : 2
    Format : AAC
    Format/Info : Advanced Audio Codec
    Format profile : LC
    Codec ID : 40
    Duration : 1h 40mn
    Bit rate mode : Variable
    Bit rate : 152 Kbps
    Maximum bit rate : 193 Kbps
    Channel(s) : 2 channels
    Channel positions : Front: L R
    Sampling rate : 48.0 KHz
    Compression mode : Lossy
    Stream size : 109 MiB (3%)
    Title : Dub
    Language : Russian
    Encoded date : UTC 2014-07-05 12:55:27
    Tagged date : UTC 2014-07-05 13:18:34

    Audio #2
    ID : 3
    Format : AAC
    Format/Info : Advanced Audio Codec
    Format profile : LC
    Codec ID : 40
    Duration : 1h 40mn
    Bit rate mode : Variable
    Bit rate : 144 Kbps
    Maximum bit rate : 196 Kbps
    Channel(s) : 2 channels
    Channel positions : Front: L R
    Sampling rate : 48.0 KHz
    Compression mode : Lossy
    Stream size : 102 MiB (3%)
    Title : MVO
    Language : Russian
    Encoded date : UTC 2014-07-05 13:02:00
    Tagged date : UTC 2014-07-05 13:18:34

    Audio #3
    ID : 4
    Format : AAC
    Format/Info : Advanced Audio Codec
    Format profile : LC
    Codec ID : 40
    Duration : 1h 40mn
    Bit rate mode : Variable
    Bit rate : 144 Kbps
    Maximum bit rate : 193 Kbps
    Channel(s) : 2 channels
    Channel positions : Front: L R
    Sampling rate : 48.0 KHz
    Compression mode : Lossy
    Stream size : 105 MiB (3%)
    Title : VO_ Gavrilov
    Language : Russian
    Encoded date : UTC 2014-07-05 13:08:19
    Tagged date : UTC 2014-07-05 13:18:34

    Audio #4
    ID : 5
    Format : AAC
    Format/Info : Advanced Audio Codec
    Format profile : LC
    Codec ID : 40
    Duration : 1h 40mn
    Bit rate mode : Variable
    Bit rate : 156 Kbps
    Maximum bit rate : 198 Kbps
    Channel(s) : 2 channels
    Channel positions : Front: L R
    Sampling rate : 48.0 KHz
    Compression mode : Lossy
    Stream size : 112 MiB (3%)
    Title : Original
    Language : English
    Encoded date : UTC 2014-07-05 13:14:04
    Tagged date : UTC 2014-07-05 13:18:34

    Text #1
    ID : 6
    Format : Timed Text
    Muxing mode : sbtl
    Codec ID : tx3g
    Duration : 1h 32mn
    Bit rate mode : Variable
    Bit rate : 54 bps
    Stream size : 36.5 KiB (0%)
    Language : Russian
    Encoded date : UTC 2014-07-05 13:18:34
    Tagged date : UTC 2014-07-05 13:18:34

    Text #2
    ID : 7
    Format : Timed Text
    Muxing mode : sbtl
    Codec ID : tx3g
    Duration : 1h 32mn
    Bit rate mode : Variable
    Bit rate : 35 bps
    Stream size : 23.4 KiB (0%)
    Language : English
    Encoded date : UTC 2014-07-05 13:18:34
    Tagged date : UTC 2014-07-05 13:18:34

    Menu
    ID : 8
    Codec ID : text
    Duration : 1h 40mn
    Encoded date : UTC 2014-07-05 13:19:33
    Tagged date : UTC 2014-07-05 13:19:33
    Bit rate mode : VBR

    x264

    x264 info: frame I:1425 Avg QP:15.20 size: 72955
    x264 info: frame P:33690 Avg QP:17.36 size: 36572
    x264 info: frame B:109509 Avg QP:19.22 size: 14999
    x264 info: consecutive B-frames: 3.4% 3.8% 9.9% 21.1% 17.2% 34.0% 4.4% 3.0% 2.6% 0.3% 0.1% 0.2% 0.1%
    x264 info: mb I I16..4: 12.6% 52.9% 34.5%
    x264 info: mb P I16..4: 1.6% 16.6% 5.9% P16..4: 22.8% 32.3% 13.1% 4.4% 0.6% skip: 2.7%
    x264 info: mb B I16..4: 0.1% 2.7% 1.3% B16..8: 31.8% 22.9% 4.2% direct:11.7% skip:25.3% L0:36.9% L1:39.9% BI:23.3%
    x264 info: 8x8 transform intra:66.3% inter:35.1%
    x264 info: direct mvs spatial:100.0% temporal:0.0%
    x264 info: coded y,uvDC,uvAC intra: 90.9% 61.4% 31.1% inter: 41.1% 14.8% 3.4%
    x264 info: i16 v,h,dc,p: 6% 6% 16% 72%
    x264 info: i8 v,h,dc,ddl,ddr,vr,hd,vl,hu: 13% 9% 8% 9% 12% 12% 11% 12% 13%
    x264 info: i4 v,h,dc,ddl,ddr,vr,hd,vl,hu: 36% 6% 6% 7% 10% 10% 8% 8% 9%
    x264 info: i8c dc,h,v,p: 23% 39% 22% 16%
    x264 info: Weighted P-Frames: Y:7.5% UV:4.3%
    x264 info: ref P L0: 53.7% 10.2% 15.0% 6.7% 4.5% 3.3% 2.5% 1.5% 1.3% 1.1% 0.2% 0.0%
    x264 info: ref B L0: 84.4% 6.8% 3.4% 1.7% 1.2% 1.0% 0.8% 0.5% 0.3%
    x264 info: ref B L1: 95.4% 4.6%
    x264 info: kb/s:3945.42
    iTunes tags


    Sort Name: Lara Croft: Tomb Raider
    XID: Apple:vendor_id:2001-3950
    Content ID: 211293149
    Copyright: © 2001 by PARAMOUNT PICTURES. TM Core Design Ltd. All Rights Reserved.
    ScreenWriters: Патрик Мэссет, Джон Зинмен, Сара Б. Купер
    Producers: Лоуренс Гордон, Ллойд Левин, Колин Уилсон
    Director: Саймон Уэст
    Cast: Анджелина Джоли, Джон Войт, Айэйн Глен, Ноа Тейлор, Дэниэл Крэйг, Ричард Джонсон, Крис Барри, Джулиан Райнд-Татт, Лесли Филлипс, Роберт Филлипс // Angelina Jolie (Lara Croft), Jon Voight (Lord Richard Croft), Iain Glen (Manfred Powell), Noah Taylor (Bryce), Daniel Craig (Alex West), Robert Phillips (Julius, Assault Team Leader), Richard Johnson (Distinguished Gentleman), Chris Barrie (Hillary), Rachel Appleton (Young Lara), Julian Rhind-Tutt (Mr. Pimms), Leslie Phillips (Wilson)
    Rating: PG-13
    Long Deion: Она — само совершенство! На нашей планете нет женщины, которая могла бы сравниться с ней. Она — божественно прекрасна, невероятно умна и потрясающе отважна. Она владеет всеми видами рукопашного боя, изумительно стреляет из любых видов оружия и способна выжить в самых экстремальных условиях.Эта девушка — дочь лорда. Ее имя — леди Лара Крофт. И пусть трепещут злодеи, которые попытаются встать у нее на пути…
    Deion: Она — само совершенство! На нашей планете нет женщины, которая могла бы сравниться с ней. Она — божественно прекрасна, невероятно умна и потрясающе отважна. Она владеет всеми видами рукопашного боя, изумительно стреляет из любых видов оружия...
    Release Date: 2001-06-15T07:00:00Z
    Genre: Action Adventure
    Artist: Simon West Lawrence Gordon
    Name: Лара Крофт: Расхитительница гробниц
    Comments: The Biggest Adventure Begins 2001






    Залил: gekka
    Размер скачиваемого торрента: 3.21 GB (3449381925 Bytes)

    Лара Крофт: Расхитительница гробниц / Lara Croft: Tomb Raider (2001) HDRip-AVC | iPad | D,P,A торрент скачать бесплатно
    загрузка...
    Рейтинг →
     (голосов: 1, оценка 5/5, голосовать можно 1 раз )

    Другие торренты по теме:

  • Чак Брайт - Лара Крофт на Диком Западе (2013) MP3
  • Андрей Чернецов - Лара Крофт - расхитительница гробниц (2002) FB2
  • Андрей Чернецов, Чак Брайт ,Наталья Филинова - Лара Крофт.Трилогия (2013) MP3
  • Лара Крофт: Расхитительница гробниц 2 / Lara Croft 2r (2003) HDRip-AVC | iPad | D
  • Лара Крофт: Расхитительница гробниц 2 - Колыбель жизни / Lara Croft Tomb Raider: The Cradle Of Life (2003) BDRip 720p
  • Лара Крофт: Расхитительница гробниц / Lara Croft: Tomb Raider (2001) BDRip 720p
  • Лара Крофт: Расхитительница гробниц / Lara Croft: Tomb Raider (2001) BDRip 1080p


    • Комментарии (0):

      Информация

      Информация

        Посетители, находящиеся в группе Гости, не могут оставлять комментарии в данной новости.

        ↓ Меню



        ↓ Опрос

        А Вы добавили сайт в закладки?
        Да
        Не


        Top 10 за месяц (Фильмы)