.
Авторизация | Регистрация
Хочешь лучшие торренты? Добавь свой email!
Добавить
» » Лара Крофт: Расхитительница гробниц 2 / Lara Croft 2r (2003) HDRip-AVC | iPad | D скачать торрент бесплатно




    Лара Крофт: Расхитительница гробниц 2 / Lara Croft 2r (2003) HDRip-AVC | iPad | D скачать торрент бесплатно

    Опубликовал: Админ | Дата: 27-02-2015, 11:10 | Просмотров: 249



    Лара Крофт: Расхитительница гробниц 2 – Колыбель жизни / Lara Croft Tomb Raider: The Cradle of Life (2003) HDRip-AVC | iPad | D,P,A


    Русское название: Лара Крофт: Расхитительница гробниц 2 – Колыбель жизни
    Русское название в мировом прокате: Lara Croft Tomb Raider: The Cradle of Life
    Создали в: 2003
    Категория жанра: фэнтези, боевик, триллер
    Главный режиссер: Ян де Бонт
    Актеры: Анджелина Джоли, Джерард Батлер, Киаран Хайндс, Крис Барри, Ноа Тейлор, Джимон Хонсу, Тиль Швайгер, Саймон Ям, Теренс Йин, Даниэль Кальтаджироне

    Сюжет фильма:
    Во второй серии приключений прекрасной расхитительницы гробниц Лары Крофт география действия становится ещё обширней и экзотичней. Ларе предстоит побывать в Греции, Кении, Танзании, Гонконге и Китае, и, разумеется, не для того, чтобы оценить местные красоты.
    Она будет противостоять злодею-интеллектуалу Чену Ло, возглавляющему китайский преступный синдикат. Ло, искусный бизнесмен и хладнокровный убийца, замыслил украсть мифический Ящик Пандоры из ушедшего под воду храма, чтобы использовать его как оружие Судного дня...




    Снималось в: США, Германия, Япония, Великобритания
    Киностудия: Paramount Pictures

    Время просмотра: 01:57:23
    Перевод текста: Русский дублированный, профессиональный многоголосый закадровый, авторский

    Файл
    Кодек для видео: H.264
    Качество фильма: HDRip 576p
    Информация о видео: 1024x436 (2.35:1) at 23.976 fps, AVC at 3000 kbps
    Информация о звуке:
    1: АAС 2.0 151 kbps - Русский дублированный
    2: АAС 2.0 144 kbps - Русский профессиональный многоголосый закадровый
    3: АAС 2.0 144 kbps - Русский авторский (Ю.Живов)
    4: АAС 2.0 159 kbps - Английский
    Субтитры: Русский (Blu-ray TWN), Английский

    MediaInfo

    General
    Complete name : I:modoutLara.Croft.Tomb.Raider.The.Cradle.of.Life.2003.576p.DPA.m4v
    Format : MPEG-4
    Codec ID : M4V
    File size : 3.29 GiB
    Duration : 1h 57mn
    Overall bit rate mode : Variable
    Overall bit rate : 4 014 Kbps
    Movie name : Лара Крофт: Расхитительница гробниц 2 - Колыбель жизни
    Performer : Jan de Bont Simon West
    Genre : Action Adventure
    ContentType : Short Film
    Deion : Во второй серии приключений прекрасной расхитительницы гробниц Лары Крофт география действия становится ещё обширней и экзотичней. Ларе предстоит побывать в Греции, Кении, Танзании, Гонконге и Китае...
    Recorded date : UTC 2003-11-18 08:00:00
    Encoded date : UTC 2014-07-05 18:19:02
    Tagged date : UTC 2014-07-05 18:21:51
    Copyright : © 2003 Paramount Pictures
    Cover : Yes
    ContentRating : mpaa|PG-13|300|

    Title/Sort : Lara Croft Tomb Raider: The Cradle of Life
    LongDeion : Во второй серии приключений прекрасной расхитительницы гробниц Лары Крофт география действия становится ещё обширней и экзотичней. Ларе предстоит побывать в Греции, Кении, Танзании, Гонконге и Китае, и, разумеется, не для того, чтобы оценить местные красоты.Она будет противостоять злодею-интеллектуалу Чену Ло, возглавляющему китайский преступный синдикат. Ло, искусный бизнесмен и хладнокровный убийца, замыслил украсть мифический Ящик Пандоры из ушедшего под воду храма, чтобы использовать его как оружие Судного дня…
    AppleStoreCatalogID : 209129482
    Vendor : Apple:vendor_id:2003-7988

    Video
    ID : 1
    Format : AVC
    Format/Info : Advanced Video Codec
    Format profile : High@L4.1
    Format settings, CABAC : Yes
    Format settings, ReFrames : 10 frames
    Codec ID : avc1
    Codec ID/Info : Advanced Video Coding
    Duration : 1h 57mn
    Bit rate : 3 008 Kbps
    Maximum bit rate : 16.3 Mbps
    Width : 1 024 pixels
    Height : 436 pixels
    Display aspect ratio : 2.35:1
    Frame rate mode : Constant
    Frame rate : 23.976 fps
    Color space : YUV
    Chroma subsampling : 4:2:0
    Bit depth : 8 bits
    Scan type : Progressive
    Bits/(Pixel*Frame) : 0.281
    Stream size : 2.47 GiB (75%)
    Title : Lara Croft Tomb Raider_ The Cradle of Life _2003_
    Language : English
    Encoded date : UTC 2014-07-05 18:19:02
    Tagged date : UTC 2014-07-05 18:19:36
    Matrix coefficients : BT.709

    Audio #1
    ID : 2
    Format : AAC
    Format/Info : Advanced Audio Codec
    Format profile : LC
    Codec ID : 40
    Duration : 1h 57mn
    Bit rate mode : Variable
    Bit rate : 151 Kbps
    Maximum bit rate : 180 Kbps
    Channel(s) : 2 channels
    Channel positions : Front: L R
    Sampling rate : 48.0 KHz
    Compression mode : Lossy
    Stream size : 126 MiB (4%)
    Title : Dub
    Language : Russian
    Encoded date : UTC 2014-07-05 18:02:18
    Tagged date : UTC 2014-07-05 18:19:36

    Audio #2
    ID : 3
    Format : AAC
    Format/Info : Advanced Audio Codec
    Format profile : LC
    Codec ID : 40
    Duration : 1h 57mn
    Bit rate mode : Variable
    Bit rate : 141 Kbps
    Maximum bit rate : 217 Kbps
    Channel(s) : 2 channels
    Channel positions : Front: L R
    Sampling rate : 48.0 KHz
    Compression mode : Lossy
    Stream size : 118 MiB (3%)
    Title : MVO
    Language : Russian
    Encoded date : UTC 2014-07-05 18:06:15
    Tagged date : UTC 2014-07-05 18:19:36

    Audio #3
    ID : 4
    Format : AAC
    Format/Info : Advanced Audio Codec
    Format profile : LC
    Codec ID : 40
    Duration : 1h 57mn
    Bit rate mode : Variable
    Bit rate : 144 Kbps
    Maximum bit rate : 221 Kbps
    Channel(s) : 2 channels
    Channel positions : Front: L R
    Sampling rate : 48.0 KHz
    Compression mode : Lossy
    Stream size : 121 MiB (4%)
    Title : VO_ Zhivov
    Language : Russian
    Encoded date : UTC 2014-07-05 18:10:21
    Tagged date : UTC 2014-07-05 18:19:36

    Audio #4
    ID : 5
    Format : AAC
    Format/Info : Advanced Audio Codec
    Format profile : LC
    Codec ID : 40
    Duration : 1h 57mn
    Bit rate mode : Variable
    Bit rate : 159 Kbps
    Maximum bit rate : 220 Kbps
    Channel(s) : 2 channels
    Channel positions : Front: L R
    Sampling rate : 48.0 KHz
    Compression mode : Lossy
    Stream size : 134 MiB (4%)
    Title : AAC Original
    Language : English
    Encoded date : UTC 2014-07-05 18:16:49
    Tagged date : UTC 2014-07-05 18:19:36

    Audio #5
    ID : 6
    Format : AC-3
    Format/Info : Audio Coding 3
    Mode extension : CM (complete main)
    Format settings, Endianness : Big
    Codec ID : ac-3
    Duration : 1h 57mn
    Bit rate mode : Constant
    Bit rate : 384 Kbps
    Channel(s) : 6 channels
    Channel positions : Front: L C R, Side: L R, LFE
    Sampling rate : 48.0 KHz
    Bit depth : 16 bits
    Compression mode : Lossy
    Stream size : 322 MiB (10%)
    Title : AC3 Original
    Language : English
    Encoded date : UTC 2014-07-05 18:19:33
    Tagged date : UTC 2014-07-05 18:19:36

    Text #1
    ID : 7
    Format : Timed Text
    Muxing mode : sbtl
    Codec ID : tx3g
    Duration : 1h 57mn
    Bit rate mode : Variable
    Bit rate : 60 bps
    Stream size : 51.3 KiB (0%)
    Title : Blu_ray TWN
    Language : Russian
    Encoded date : UTC 2014-07-05 18:19:36
    Tagged date : UTC 2014-07-05 18:19:36

    Text #2
    ID : 8
    Format : Timed Text
    Muxing mode : sbtl
    Codec ID : tx3g
    Duration : 1h 47mn
    Bit rate mode : Variable
    Bit rate : 40 bps
    Stream size : 31.5 KiB (0%)
    Language : English
    Encoded date : UTC 2014-07-05 18:19:36
    Tagged date : UTC 2014-07-05 18:19:36

    Menu
    ID : 9
    Codec ID : text
    Duration : 1h 57mn
    Encoded date : UTC 2014-07-05 18:20:16
    Tagged date : UTC 2014-07-05 18:20:16
    Bit rate mode : VBR

    x264

    x264 info: frame I:1286 Avg QP:14.82 size: 67191
    x264 info: frame P:42946 Avg QP:17.26 size: 27859
    x264 info: frame B:124626 Avg QP:19.79 size: 10952
    x264 info: consecutive B-frames: 4.6% 5.0% 14.8% 20.2% 15.5% 25.1% 5.6% 3.2% 4.6% 0.7% 0.2% 0.2% 0.3%
    x264 info: mb I I16..4: 8.9% 60.7% 30.4%
    x264 info: mb P I16..4: 1.2% 15.4% 4.5% P16..4: 26.1% 32.2% 11.2% 3.6% 0.6% skip: 5.3%
    x264 info: mb B I16..4: 0.1% 2.5% 0.9% B16..8: 33.6% 22.8% 3.4% direct: 6.6% skip:29.9% L0:38.4% L1:43.1% BI:18.5%
    x264 info: 8x8 transform intra:71.0% inter:45.9%
    x264 info: direct mvs spatial:99.6% temporal:0.4%
    x264 info: coded y,uvDC,uvAC intra: 87.9% 79.7% 57.0% inter: 27.4% 21.5% 9.3%
    x264 info: i16 v,h,dc,p: 12% 8% 6% 74%
    x264 info: i8 v,h,dc,ddl,ddr,vr,hd,vl,hu: 13% 11% 7% 8% 12% 12% 12% 12% 14%
    x264 info: i4 v,h,dc,ddl,ddr,vr,hd,vl,hu: 32% 7% 6% 7% 11% 10% 10% 8% 10%
    x264 info: i8c dc,h,v,p: 30% 31% 21% 18%
    x264 info: Weighted P-Frames: Y:7.1% UV:5.2%
    x264 info: ref P L0: 61.8% 10.3% 12.2% 5.0% 3.3% 2.4% 1.8% 1.1% 1.0% 0.9% 0.2% 0.0%
    x264 info: ref B L0: 84.2% 7.1% 3.4% 1.7% 1.2% 0.9% 0.7% 0.5% 0.3%
    x264 info: ref B L1: 94.4% 5.6%
    x264 info: kb/s:3007.52
    iTunes tags


    Sort Name: Lara Croft Tomb Raider: The Cradle of Life
    XID: Apple:vendor_id:2003-7988
    Content ID: 209129482
    Copyright: © 2003 Paramount Pictures
    ScreenWriters: Дин Георгарис, Стивен Е. де Соуза, Джеймс В. Харт
    Producers: Лоуренс Гордон, Ллойд Левин, Шелли Клиппард
    Director: Ян де Бонт
    Cast: Анджелина Джоли, Джерард Батлер, Киаран Хайндс, Крис Барри, Ноа Тейлор, Джимон Хонсу, Тиль Швайгер, Саймон Ям, Теренс Йин, Даниэль Кальтаджироне // Angelina Jolie (Lara Croft), Gerard Butler (Terry Sheridan), Noah Taylor (Bryce), Djimon Hounsou (Kosa), Til Schweiger (Sean), Simon Yam (Chen Lo), Daniel Caltagirone (Nicholas Petraki), Fabiano Martell (Jimmy Petraki), Robert Cavanah (MI6 Agent Stevens), Ronan Vibert (MI6 Agent Calloway), Chris Barrie (Hillary), Jonny Coyne (Gus Petraki (as Jonathan Coyne))
    Rating: PG-13
    Long Deion: Во второй серии приключений прекрасной расхитительницы гробниц Лары Крофт география действия становится ещё обширней и экзотичней. Ларе предстоит побывать в Греции, Кении, Танзании, Гонконге и Китае, и, разумеется, не для того, чтобы оценить местные красоты.Она будет противостоять злодею-интеллектуалу Чену Ло, возглавляющему китайский преступный синдикат. Ло, искусный бизнесмен и хладнокровный убийца, замыслил украсть мифический Ящик Пандоры из ушедшего под воду храма, чтобы использовать его как оружие Судного дня…
    Deion: Во второй серии приключений прекрасной расхитительницы гробниц Лары Крофт география действия становится ещё обширней и экзотичней. Ларе предстоит побывать в Греции, Кении, Танзании, Гонконге и Китае...
    Release Date: 2003-11-18T08:00:00Z
    Genre: Action Adventure
    Artist: Jan de Bont Simon West
    Name: Лара Крофт: Расхитительница гробниц 2 - Колыбель жизни






    Залил: gekka
    Размер скачиваемого торрента: 3.29 GB (3534030378 Bytes)

    Лара Крофт: Расхитительница гробниц 2 / Lara Croft 2r (2003) HDRip-AVC | iPad | D торрент скачать бесплатно
    загрузка...
    Рейтинг →
     (голосов: 1, оценка 4/5, голосовать можно 1 раз )

    Другие торренты по теме:

  • Чак Брайт - Лара Крофт на Диком Западе (2013) MP3
  • Андрей Чернецов - Лара Крофт - расхитительница гробниц (2002) FB2
  • Андрей Чернецов, Чак Брайт ,Наталья Филинова - Лара Крофт.Трилогия (2013) MP3
  • Лара Крофт: Расхитительница гробниц / Lara Croft: Tomb Raider (2001) HDRip-AVC | iPad | D,P,A
  • Лара Крофт: Расхитительница гробниц 2 - Колыбель жизни / Lara Croft Tomb Raider: The Cradle Of Life (2003) BDRip 720p
  • Лара Крофт: Расхитительница гробниц / Lara Croft: Tomb Raider (2001) BDRip 720p
  • Лара Крофт: Расхитительница гробниц / Lara Croft: Tomb Raider (2001) BDRip 1080p
  • Лара Крофт: Расхитительница гробниц 2 - Колыбель жизни / Lara Croft Tomb Raider: The Cradle of Life (2003) BDRemux 1080p | D, P2, A


    • Комментарии (0):

      Информация

      Информация

        Посетители, находящиеся в группе Гости, не могут оставлять комментарии в данной новости.

        ↓ Меню



        ↓ Опрос

        А Вы добавили сайт в закладки?
        Да
        Не


        Top 10 за месяц (Фильмы)